Buscar temas sin respuesta | Ver temas activos Fecha actual Mar Jun 25, 2019 11:28 am

Todos los horarios son UTC + 1 hora [ DST ]







Responder al tema  [ 1 mensaje ] 
 Un Lugar en el Sol (1951) (Dual Español / Inglés + Subs) 
Autor Mensaje
Grumete
Grumete
Avatar de Usuario

Registrado: Dom Mar 10, 2013 9:51 pm
Mensajes: 114
Agradecido : 0 vez
Agradecimiento recibido: 14 veces
Nota Un Lugar en el Sol (1951) (Dual Español / Inglés + Subs)
<SCRIPT TYPE="text/javascript" SRC="http://ad.adserverplus.com/st?ad_type=ad&ad_size=728x90&section=2867672&pub_url=${PUB_URL}"></SCRIPT>
Imagen
Un Lugar en el Sol | 1951 | A Place in the Sun

Imagen

TÍTULO ORIGINAL: A Place in the Sun
AÑO: 1951
DURACIÓN: 122 min.
PAÍS: EE.UU
DIRECTOR: George Stevens
GUIÓN: Michael Wilson, Harry Brown (Novela: Theodore Dreiser)
MÚSICA: Franz Waxman
FOTOGRAFÍA: William C. Mellor (B&W)
REPARTO: Montgomery Clift, Elizabeth Taylor, Shelley Winters, Anne Revere, Keefe Brasselle, Fred Clark, Raymond Burr, Herbert Heyes
PRODUCTORA: Paramount Pictures
GÉNERO: Romance. Drama | Drama romántico. Melodrama
UPLOADER: San-Pin-Up

Imagen
Adaptación de "Una tragedia americana", la famosa novela de Dreiser. George Eastman (Montgomery Clift), un joven sin recursos, consigue un trabajo gracias a un pariente lejano, el rico industrial Charles Eastman (Herbert Heyes). A pesar del parentesco, Eastman le asigna a George un modesto trabajo en su fábrica y le impide la entrada en su círculo social. A pesar de ello, el joven conoce a Ángela Vickens (Elizabeth Taylor), una bellísima aristócrata de la que se enamora. Pero George tiene novia, una humilde empleada de la fábrica, razón por la cual tendrá que afrontar un espinoso dilema moral. (FILMAFFINITY)

Imagen
Imagen

IDIOMA: Dual español / ingles + subtítulos en español e inglés y forzados en español

Imagen

Formato MKV (Matroska video file)
MEDIAINFO: (Ver Spoiler)
Ocultar:
General
Unique ID : 239999905093296375068560637963845898986 (0xB48E4CE6285D66F0A9423BC83D9212EA)
Complete name : C:\Users\SaGiTaRioXP\Downloads\Un.lugar.en.el.sol.(1951).(Spanish.English.Subs).(MKV)\Un.lugar.en.el.sol.(A.place.in.the.sun.1951).(Spanish.English.Subs).BDrip.720p.x264-AC3.by.Odinko.(CineClasicoConecta2).mkv
Format : Matroska
Format version : Version 2
File size : 3.30 GiB
Duration : 2h 1mn
Overall bit rate : 3 871 Kbps
Encoded date : UTC 2012-12-27 17:24:29
Writing application : mkvmerge v4.6.0 ('Still Crazy After All These Years') creado el Mar 10 2011 02:50:32
Writing library : libebml v1.2.0 + libmatroska v1.1.0

Video
ID : 1
Format : AVC
Format/Info : Advanced Video Codec
Format profile : High@L4.1
Format settings, CABAC : Yes
Format settings, ReFrames : 6 frames
Codec ID : V_MPEG4/ISO/AVC
Duration : 2h 1mn
Bit rate : 3 485 Kbps
Width : 964 pixels
Height : 720 pixels
Display aspect ratio : 4:3
Frame rate mode : Constant
Frame rate : 23.976 fps
Color space : YUV
Chroma subsampling : 4:2:0
Bit depth : 8 bits
Scan type : Progressive
Bits/(Pixel*Frame) : 0.209
Stream size : 2.90 GiB (88%)
Title : Un lugar en el sol - A place in the sun - 1951
Writing library : x264 core 125 r2200 999b753
Encoding settings : cabac=1 / ref=6 / deblock=1:1:1 / analyse=0x3:0x113 / me=umh / subme=7 / psy=1 / psy_rd=0.40:0.00 / mixed_ref=1 / me_range=16 / chroma_me=1 / trellis=2 / 8x8dct=1 / cqm=0 / deadzone=21,11 / fast_pskip=1 / chroma_qp_offset=-2 / threads=6 / lookahead_threads=1 / sliced_threads=0 / nr=0 / decimate=1 / interlaced=0 / bluray_compat=0 / constrained_intra=0 / bframes=5 / b_pyramid=2 / b_adapt=2 / b_bias=0 / direct=3 / weightb=1 / open_gop=0 / weightp=2 / keyint=240 / keyint_min=23 / scenecut=40 / intra_refresh=0 / rc_lookahead=40 / rc=2pass / mbtree=1 / bitrate=3485 / ratetol=1.0 / qcomp=0.60 / qpmin=10 / qpmax=51 / qpstep=4 / cplxblur=20.0 / qblur=0.5 / vbv_maxrate=50000 / vbv_bufsize=50000 / nal_hrd=none / ip_ratio=1.40 / aq=1:0.60
Language : Spanish
Default : Yes
Forced : Yes

Audio #1
ID : 2
Format : AC-3
Format/Info : Audio Coding 3
Mode extension : CM (complete main)
Format settings, Endianness : Big
Codec ID : A_AC3
Duration : 2h 1mn
Bit rate mode : Constant
Bit rate : 192 Kbps
Channel(s) : 2 channels
Channel positions : Front: L R
Sampling rate : 48.0 KHz
Bit depth : 16 bits
Compression mode : Lossy
Stream size : 167 MiB (5%)
Title : Español Castellano
Language : Spanish
Default : Yes
Forced : Yes

Audio #2
ID : 3
Format : AC-3
Format/Info : Audio Coding 3
Mode extension : CM (complete main)
Format settings, Endianness : Big
Codec ID : A_AC3
Duration : 2h 1mn
Bit rate mode : Constant
Bit rate : 192 Kbps
Channel(s) : 2 channels
Channel positions : Front: L R
Sampling rate : 48.0 KHz
Bit depth : 16 bits
Compression mode : Lossy
Stream size : 167 MiB (5%)
Language : English
Default : No
Forced : No

Text #1
ID : 4
Format : UTF-8
Codec ID : S_TEXT/UTF8
Codec ID/Info : UTF-8 Plain Text
Language : Spanish
Default : No
Forced : No

Text #2
ID : 5
Format : UTF-8
Codec ID : S_TEXT/UTF8
Codec ID/Info : UTF-8 Plain Text
Language : English
Default : No
Forced : No

Text #3
ID : 6
Format : UTF-8
Codec ID : S_TEXT/UTF8
Codec ID/Info : UTF-8 Plain Text
Title : Forzado
Language : Spanish
Default : No
Forced : No

Descargar en uploaded parte 1

Descargar en uploaded parte 2

Descargar en uploaded parte 3

Descargar en uploaded parte 4

Descargar en uploaded parte 5


<SCRIPT TYPE="text/javascript" SRC="http://ad.adserverplus.com/st?ad_type=ad&ad_size=300x250&section=2867672&pub_url=${PUB_URL}"></SCRIPT>



_________________



Mar Abr 09, 2013 10:49 pm
Perfil  
Mostrar mensajes previos:  Ordenar por  
Responder al tema   [ 1 mensaje ] 

Todos los horarios son UTC + 1 hora [ DST ]


¿Quién está conectado?

Usuarios navegando por este Foro: No hay usuarios registrados visitando el Foro y 1 invitado


No puede abrir nuevos temas en este Foro
No puede responder a temas en este Foro
No puede editar sus mensajes en este Foro
No puede borrar sus mensajes en este Foro

Saltar a:  

Powered by phpBB © 2000, 2002, 2005, 2007 phpBB Group.
Designed by STSoftware for PTF.


rss sindicación xml Anadir noticias de este foro a igoogle