Buscar temas sin respuesta | Ver temas activos Fecha actual Mar Jun 25, 2019 12:06 pm

Todos los horarios son UTC + 1 hora [ DST ]



Responder al tema  [ 1 mensaje ] 
 Un americano en París | 1951 | Dual-Esp-Ing+Subs-Esp (MKV) 
Autor Mensaje
Capitán Pirata
Capitán Pirata
Avatar de Usuario

Registrado: Jue Feb 09, 2012 2:19 pm
Mensajes: 1949
Ubicación: España
Agradecido : 526 veces
Agradecimiento recibido: 451 veces
Nota Un americano en París | 1951 | Dual-Esp-Ing+Subs-Esp (MKV)

Imagen
Un americano en París | 1951 | An American in Paris

Imagen

TÍTULO ORIGINAL: An American in Paris
AÑO: 1951
DURACIÓN: 115 min.
PAÍS: Estados Unidos
DIRECTOR: Vincente Minnelli
GUIÓN: Alan Jay Lerner
MÚSICA: George Gershwin
FOTOGRAFÍA: Alfred Gilks
REPARTO: Gene Kelly, Leslie Caron, Oscar Levant, Georges Guétary, Nina Foch, Ernie Flatt, Alex Romero, Dickie Humphreys, Charles Mauu
PRODUCTORA: MGM. Producer: Arthur Freed
GÉNERO: Musical, Romance
PREMIOS:
1951:
6 Oscars: Película, argumento, guión, música, direcc. artíst., vestuario color
1951:Globo de Oro: Mejor película: Comedia o Musical
1952:Festival de Cannes: Nominada a la Palma de Oro (mejor película)
UPLOADER: Odinko

Imagen
Terminada la Segunda Guerra Mundial, Jerry Mulligan (Gene Kelly), un pintor americano, se queda en París y expone sus cuadros, que nadie compra, en Montparnasse. Un día tiene la suerte de conocer a una americana millonaria que decide promocionarlo. Al mismo tiempo, conoce a una dependienta y se enamora de ella.


Imagen
Imagen

IDIOMA: Dual Castellano / Inglés con subtítulos en español

Imagen
MEDIAINFO: (Ver spoiler) (Formato: MKV)
Ocultar:
Un.Americano.En.París.(1951).(Dual-Esp-Ing+Subs).BR.720p.x264.AC3.by.Odinko.(CineClásicoConecta2).mkv
Format : Matroska
Format version : Version 2
File size : 2.60 GiB
Duration : 1h 53mn
Overall bit rate : 3 280 Kbps
Encoded date : UTC 2013-04-28 02:18:47
Writing application : mkvmerge v5.8.0 ('No Sleep / Pillow') built on Sep 2 2012 15:37:04
Writing library : libebml v1.2.3 + libmatroska v1.3.0
Attachment : Yes / Yes / Yes / Yes / Yes

Video
ID : 1
Format : AVC
Format/Info : Advanced Video Codec
Format profile : High@L4.1
Format settings, CABAC : Yes
Format settings, ReFrames : 11 frames
Muxing mode : Header stripping
Codec ID : V_MPEG4/ISO/AVC
Duration : 1h 53mn
Bit rate : 2 831 Kbps
Width : 984 pixels
Height : 720 pixels
Display aspect ratio : 4:3
Frame rate mode : Constant
Frame rate : 23.976 fps
Color space : YUV
Chroma subsampling : 4:2:0
Bit depth : 8 bits
Scan type : Progressive
Bits/(Pixel*Frame) : 0.167
Stream size : 2.25 GiB (86%)
Title : Un Americano En París 1951 BluRay 720p.x264 - MKV creado por Odinko de Cine Clásico Conecta2
Writing library : x264 core 120 r2120 0c7dab9
Encoding settings : cabac=1 / ref=11 / deblock=1:-1:-1 / analyse=0x3:0x133 / me=umh / subme=10 / psy=1 / psy_rd=1.00:0.15 / mixed_ref=1 / me_range=24 / chroma_me=1 / trellis=2 / 8x8dct=1 / cqm=0 / deadzone=21,11 / fast_pskip=1 / chroma_qp_offset=-3 / threads=12 / sliced_threads=0 / nr=0 / decimate=1 / interlaced=0 / bluray_compat=0 / constrained_intra=0 / bframes=8 / b_pyramid=2 / b_adapt=2 / b_bias=0 / direct=3 / weightb=1 / open_gop=0 / weightp=2 / keyint=350 / keyint_min=25 / scenecut=40 / intra_refresh=0 / rc_lookahead=60 / rc=crf / mbtree=1 / crf=20.0 / qcomp=0.60 / qpmin=10 / qpmax=51 / qpstep=4 / ip_ratio=1.40 / aq=1:1.00
Language : English
Default : Yes
Forced : No

Audio #1
ID : 2
Format : AC-3
Format/Info : Audio Coding 3
Mode extension : CM (complete main)
Format settings, Endianness : Big
Muxing mode : Header stripping
Codec ID : A_AC3
Duration : 1h 53mn
Bit rate mode : Constant
Bit rate : 192 Kbps
Channel(s) : 1 channel
Channel positions : Front: C
Sampling rate : 48.0 KHz
Bit depth : 16 bits
Compression mode : Lossy
Stream size : 156 MiB (6%)
Title : Español
Language : Spanish
Default : Yes
Forced : No

Audio #2
ID : 3
Format : AC-3
Format/Info : Audio Coding 3
Mode extension : CM (complete main)
Format settings, Endianness : Big
Muxing mode : Header stripping
Codec ID : A_AC3
Duration : 1h 53mn
Bit rate mode : Constant
Bit rate : 192 Kbps
Channel(s) : 1 channel
Channel positions : Front: C
Sampling rate : 48.0 KHz
Bit depth : 16 bits
Compression mode : Lossy
Stream size : 156 MiB (6%)
Title : Inglés (V.O)
Language : English
Default : No
Forced : No

Text #1
ID : 4
Format : UTF-8
Codec ID : S_TEXT/UTF8
Codec ID/Info : UTF-8 Plain Text
Title : Forzados Español
Language : Spanish
Default : Yes
Forced : No

Text #2
ID : 5
Format : UTF-8
Codec ID : S_TEXT/UTF8
Codec ID/Info : UTF-8 Plain Text
Title : Español
Language : Spanish
Default : No
Forced : No

Text #3
ID : 6
Format : UTF-8
Codec ID : S_TEXT/UTF8
Codec ID/Info : UTF-8 Plain Text
Title : Inglés
Language : English
Default : No
Forced : No

Menu
00:00:00.000 : en:Chapter 00
00:01:29.589 : en:Chapter 01
00:06:04.405 : en:Chapter 02
00:09:37.243 : en:Chapter 03
00:13:13.042 : en:Chapter 04
00:18:13.342 : en:Chapter 05
00:22:20.088 : en:Chapter 06
00:26:02.018 : en:Chapter 07
00:30:20.068 : en:Chapter 08
00:33:11.781 : en:Chapter 09
00:36:45.494 : en:Chapter 10
00:40:09.824 : en:Chapter 11
00:43:02.538 : en:Chapter 12
00:45:59.131 : en:Chapter 13
00:50:03.417 : en:Chapter 14
00:53:59.486 : en:Chapter 15
00:59:50.044 : en:Chapter 16
01:02:59.192 : en:Chapter 17
01:05:15.995 : en:Chapter 18
01:10:35.064 : en:Chapter 19
01:14:33.010 : en:Chapter 20
01:19:59.836 : en:Chapter 21
01:23:14.114 : en:Chapter 22
01:25:32.043 : en:Chapter 23
01:28:38.062 : en:Chapter 24
01:34:45.888 : en:Chapter 25
01:52:16.396 : en:Chapter 26
Descargar parte 1 en Uploaded
Descargar parte 2 en Uploaded
Descargar parte 3 en Uploaded
Descargar parte 4 en Uploaded




Descargar con eMule:
Un.Americano.En.París.(1951).(Dual-Esp-Ing+Subs).BR.720p.x264.AC3.by.Odinko.(CineClásicoConecta2).mkv




_________________

Imagen


Lun May 06, 2013 9:49 am
Perfil   WWW
Mostrar mensajes previos:  Ordenar por  
Responder al tema   [ 1 mensaje ] 

Todos los horarios son UTC + 1 hora [ DST ]


¿Quién está conectado?

Usuarios navegando por este Foro: No hay usuarios registrados visitando el Foro y 0 invitados


No puede abrir nuevos temas en este Foro
No puede responder a temas en este Foro
No puede editar sus mensajes en este Foro
No puede borrar sus mensajes en este Foro

Saltar a:  
Powered by phpBB © 2000, 2002, 2005, 2007 phpBB Group.
Designed by STSoftware for PTF.


rss sindicación xml Anadir noticias de este foro a igoogle