Buscar temas sin respuesta | Ver temas activos Fecha actual Mar Jun 25, 2019 12:27 pm

Todos los horarios son UTC + 1 hora [ DST ]







Responder al tema  [ 1 mensaje ] 
 Hiroshima, mon amour | 1959 | Dual-Esp-Fra+Subs-Esp-Ing 
Autor Mensaje
Capitán Pirata
Capitán Pirata
Avatar de Usuario

Registrado: Jue Feb 09, 2012 2:19 pm
Mensajes: 1949
Ubicación: España
Agradecido : 526 veces
Agradecimiento recibido: 451 veces
Nota Hiroshima, mon amour | 1959 | Dual-Esp-Fra+Subs-Esp-Ing
<script src="http://cdn.adbooth.net/src/js/min/adbooth_ajax.js?section=4284199&width=728&height=90"></script>
Imagen
| 1959 | Hiroshima, mon amour | (MKV).

Imagen

TÍTULO ORIGINAL: Hiroshima, mon amour
AÑO: 1959
DURACIÓN: 88 min.
PAÍS: Francia
DIRECTOR: Alain Resnais
GUIÓN: Marguerite Duras
MÚSICA: Georges Delerue & Giovanni Fusco
FOTOGRAFÍA: Sacha Vierny & Takahashi Michio (B&W)
REPARTO: Emmanuelle Riva, Eiji Okada, Bernard Fresson, Stella Dassas, Pierre Barbaud
PRODUCTORA: Coproducción Francia-Japón
GÉNERO: Drama. Romance | Drama romántico. Holocausto nuclear. Nouvelle vague
UPLOADER: Odinko
PREMIOS: 1960: Nominada al Oscar: Mejor guión original

Imagen
Después de rodar una película en Hiroshima, una joven actriz francesa pasa su última noche en un hotel, en compañía de un japonés. Son dos desconocidos, pero lo que podría ser la fugaz aventura de una noche se convierte en un intenso idilio que hace que ella rememore un amor imposible vivido en Nevers (Francia) unos años antes. La relación amorosa se convierte entonces en un proceso introspectivo a través del cual la mujer reconstruye su pasado y revela sus sentimientos más íntimos a su compañero. (FILMAFFINITY)


Imagen
Imagen

IDIOMA: Dual Castellano / Francés con subtítulos en español e inglés - ( Formato: MKV )

Imagen
MEDIAINFO: (Ver Spoiler) FORMATO MKV
Ocultar:
Hiroshima.Mon.Amour.(1959).(Dual-Esp-Fra+Subs-Esp-Ing).DVD-Rip.XviD-AC3.by.Odinko.(CineClasicoConecta2).mkv
Format : Matroska
Format version : Version 2
File size : 1.09 GiB
Duration : 1h 26mn
Overall bit rate : 1 803 Kbps
Encoded date : UTC 2013-04-26 23:45:31
Writing application : mkvmerge v5.8.0 ('No Sleep / Pillow') built on Sep 2 2012 15:37:04
Writing library : libebml v1.2.3 + libmatroska v1.3.0

Video
ID : 1
Format : MPEG-4 Visual
Format profile : Advanced Simple@L5
Format settings, BVOP : Yes
Format settings, QPel : No
Format settings, GMC : No warppoints
Format settings, Matrix : Custom
Codec ID : V_MS/VFW/FOURCC / XVID
Codec ID/Hint : XviD
Duration : 1h 26mn
Bit rate : 1 383 Kbps
Width : 528 pixels
Height : 400 pixels
Display aspect ratio : 4:3
Frame rate mode : Constant
Frame rate : 25.000 fps
Color space : YUV
Chroma subsampling : 4:2:0
Bit depth : 8 bits
Scan type : Progressive
Compression mode : Lossy
Bits/(Pixel*Frame) : 0.262
Stream size : 856 MiB (77%)
Title : Hiroshima Mon Amour (1959) MKV creado por Odinko de Cine Clásico Conecta2
Writing library : XviD 1.2.1 (UTC 2008-12-04)
Default : Yes
Forced : No

Audio #1
ID : 2
Format : AC-3
Format/Info : Audio Coding 3
Mode extension : CM (complete main)
Format settings, Endianness : Big
Muxing mode : Header stripping
Codec ID : A_AC3
Duration : 1h 26mn
Bit rate mode : Constant
Bit rate : 192 Kbps
Channel(s) : 2 channels
Channel positions : Front: L R
Sampling rate : 48.0 KHz
Bit depth : 16 bits
Compression mode : Lossy
Stream size : 119 MiB (11%)
Title : Español
Language : Spanish
Default : Yes
Forced : No

Audio #2
ID : 3
Format : AC-3
Format/Info : Audio Coding 3
Mode extension : CM (complete main)
Format settings, Endianness : Big
Muxing mode : Header stripping
Codec ID : A_AC3
Duration : 1h 26mn
Bit rate mode : Constant
Bit rate : 192 Kbps
Channel(s) : 2 channels
Channel positions : Front: L R
Sampling rate : 48.0 KHz
Bit depth : 16 bits
Compression mode : Lossy
Stream size : 119 MiB (11%)
Title : Francés
Language : French
Default : No
Forced : No

Text #1
ID : 4
Format : UTF-8
Codec ID : S_TEXT/UTF8
Codec ID/Info : UTF-8 Plain Text
Title : Español
Language : Spanish
Default : Yes
Forced : No

Text #2
ID : 5
Format : UTF-8
Codec ID : S_TEXT/UTF8
Codec ID/Info : UTF-8 Plain Text
Title : Inglés
Language : English
Default : No
Forced : No
Descargar parte 1 en Uploaded
Descargar parte 2 en Uploaded



<script src="http://cdn.adbooth.net/src/js/min/adbooth_ajax.js?section=4284199&width=300&height=250"></script>


Descargar con eMule:
<a href="ed2k://|file|Hiroshima.Mon.Amour.(1959).(Dual-Esp-Fra+Subs-Esp-Ing).DVD-Rip.XviD-AC3.by.Odinko.(CineClasicoConecta2).mkv|1170203240|609F1FB324F0D3279089660780AC1E9A|h=GQYCQLTHMIN3SM7WODDL6BWMY6V4MZFE|/">Hiroshima.Mon.Amour.(1959).(Dual-Esp-Fra+Subs-Esp-Ing).DVD-Rip.XviD-AC3.by.Odinko.(CineClasicoConecta2).mkv</a>




_________________

Imagen



Vie May 03, 2013 6:14 pm
Perfil   WWW
Mostrar mensajes previos:  Ordenar por  
Responder al tema   [ 1 mensaje ] 

Todos los horarios son UTC + 1 hora [ DST ]


¿Quién está conectado?

Usuarios navegando por este Foro: No hay usuarios registrados visitando el Foro y 1 invitado


No puede abrir nuevos temas en este Foro
No puede responder a temas en este Foro
No puede editar sus mensajes en este Foro
No puede borrar sus mensajes en este Foro

Saltar a:  

Powered by phpBB © 2000, 2002, 2005, 2007 phpBB Group.
Designed by STSoftware for PTF.


rss sindicación xml Anadir noticias de este foro a igoogle