Buscar temas sin respuesta | Ver temas activos Fecha actual Mar Jun 25, 2019 11:43 am

Todos los horarios son UTC + 1 hora [ DST ]







Responder al tema  [ 2 mensajes ] 
 El incomprendido | 1966 | Dual-Esp-Ita+Subs-Esp | (MKV) 
Autor Mensaje
Capitán Pirata
Capitán Pirata
Avatar de Usuario

Registrado: Jue Feb 09, 2012 2:19 pm
Mensajes: 1949
Ubicación: España
Agradecido : 526 veces
Agradecimiento recibido: 451 veces
Nota El incomprendido | 1966 | Dual-Esp-Ita+Subs-Esp | (MKV)

Imagen
El incomprendido | 1966 | Incompreso

Imagen

TÍTULO ORIGINAL: Incompreso
AÑO: 1966
DURACIÓN: 103 min.
PAÍS: Italia
DIRECTOR: Luigi Comencini
GUIÓN: Leo Benvenuti, Piero De Bernardi, Lucia Drudi Demby, Giuseppe Mangione (Novela: Florence Montgomery)
MÚSICA: Fiorenzo Carpi
FOTOGRAFÍA: Armando Nannuzzi
REPARTO: Anthony Quayle, Stefano Colagrande, Simone Gianozzi, John Sharp, Adriana Fachetti, Giorgia Moll, Graziella Granata
PRODUCTORA: Rizzoli Film
GÉNERO: Drama
UPLOADER: Odinko

Imagen
Tras una larga enfermedad, una mujer, madre de dos hijos, muere. El padre se volcará entonces en su trabajo y en el cuidado de su hijo pequeño, desatendiendo las necesidades afectivas del mayor, un niño muy sensible al que trata como un adulto. (FILMAFFINITY)

Imagen
Imagen

IDIOMA: Dual Castellano / Inglés con subtítulos en español ( MKV )

MEDIAINFO: (Ver Spoiler)
Ocultar:
El incomprendido.(1966).(Dual-Esp-Ita+Subs-Esp).Xvid.Ac3.Mp3.by.Odinko.(CineClásicoConecta2).mkv
Format : Matroska
Format version : Version 2
File size : 1.46 GiB
Duration : 1h 39mn
Overall bit rate mode : Variable
Overall bit rate : 2 089 Kbps
Encoded date : UTC 2013-04-27 21:19:30
Writing application : mkvmerge v5.8.0 ('No Sleep / Pillow') built on Sep 2 2012 15:37:04
Writing library : libebml v1.2.3 + libmatroska v1.3.0

Video
ID : 1
Format : MPEG-4 Visual
Format profile : Advanced Simple@L5
Format settings, BVOP : Yes
Format settings, QPel : No
Format settings, GMC : No warppoints
Format settings, Matrix : Custom
Codec ID : V_MS/VFW/FOURCC / XVID
Codec ID/Hint : XviD
Duration : 1h 39mn
Bit rate : 1 507 Kbps
Width : 720 pixels
Height : 416 pixels
Display aspect ratio : 1.731
Frame rate mode : Constant
Frame rate : 25.000 fps
Color space : YUV
Chroma subsampling : 4:2:0
Bit depth : 8 bits
Scan type : Progressive
Compression mode : Lossy
Bits/(Pixel*Frame) : 0.201
Stream size : 1.05 GiB (72%)
Title : El incomprendido.(1966).(Dual-Esp-Ita+Subs-Esp).XviD.Ac3.Mp3 (MKV) creado por Odinko Cine Clásico Conecta2
Writing library : XviD 1.2.1 (UTC 2008-12-04)
Default : Yes
Forced : No

Audio #1
ID : 2
Format : AC-3
Format/Info : Audio Coding 3
Mode extension : CM (complete main)
Format settings, Endianness : Big
Muxing mode : Header stripping
Codec ID : A_AC3
Duration : 1h 39mn
Bit rate mode : Constant
Bit rate : 448 Kbps
Channel(s) : 2 channels
Channel positions : Front: L R
Sampling rate : 48.0 KHz
Bit depth : 16 bits
Compression mode : Lossy
Stream size : 320 MiB (21%)
Title : Español AC3
Language : Spanish
Default : Yes
Forced : No

Audio #2
ID : 3
Format : MPEG Audio
Format version : Version 1
Format profile : Layer 3
Mode : Joint stereo
Mode extension : MS Stereo
Muxing mode : Header stripping
Codec ID : A_MPEG/L3
Codec ID/Hint : MP3
Duration : 1h 39mn
Bit rate mode : Variable
Bit rate : 93.0 Kbps
Nominal bit rate : 128 Kbps
Channel(s) : 2 channels
Sampling rate : 48.0 KHz
Compression mode : Lossy
Stream size : 66.4 MiB (4%)
Title : Italiano MP3
Writing library : LAME3.97
Encoding settings : -m j -V 4 -q 2 -lowpass 17 --abr 128
Language : Italian
Default : No
Forced : No

Text
ID : 4
Format : UTF-8
Codec ID : S_TEXT/UTF8
Codec ID/Info : UTF-8 Plain Text
Title : Español
Language : Spanish
Default : Yes
Forced : No

Imagen

Descargar El incomprendido parte 1 en Uploaded
Descargar El incomprendido parte 2 en Uploaded



Descargar eLink con eMule:
El incomprendido.(1966).(Dual-Esp-Ita+Subs-Esp).Xvid.Ac3.Mp3.by.Odinko.(CineClásicoConecta2).mkv



_________________

Imagen



Última edición por Odinko (SagitarioXP) el Dom May 19, 2013 5:24 pm, editado 3 veces en total

Sin motivo



Jue May 16, 2013 2:10 am
Perfil   WWW
Polizón
Polizón

Registrado: Lun Mar 26, 2012 7:06 pm
Mensajes: 3
Agradecido : 0 vez
Agradecimiento recibido: 3 veces
Nota Re: El incomprendido | 1966 | Dual-Esp-Ita+Subs-Esp | (MKV)
Gracias Odinko, esta pelìcula la vì hace ya algùn tiempo y la recomiendo, es bastante buena, saludos (ola)

_________________

Estos usuarios agradecierón al autor tanis ruiz por el mensaje:
Odinko (SagitarioXP) (Vie Ago 02, 2013 6:55 pm)
Valoración: 16.67%
 


Vie Ago 02, 2013 6:46 pm
Perfil  
Mostrar mensajes previos:  Ordenar por  
Responder al tema   [ 2 mensajes ] 

Todos los horarios son UTC + 1 hora [ DST ]


¿Quién está conectado?

Usuarios navegando por este Foro: No hay usuarios registrados visitando el Foro y 0 invitados


No puede abrir nuevos temas en este Foro
No puede responder a temas en este Foro
No puede editar sus mensajes en este Foro
No puede borrar sus mensajes en este Foro

Saltar a:  

Powered by phpBB © 2000, 2002, 2005, 2007 phpBB Group.
Designed by STSoftware for PTF.


rss sindicación xml Anadir noticias de este foro a igoogle