Buscar temas sin respuesta | Ver temas activos Fecha actual Mar Feb 25, 2020 1:29 pm

Todos los horarios son UTC + 1 hora







Responder al tema  [ 1 mensaje ] 
 Cotton Club | 1984 | Dual-Esp-Ing+Subs 
Autor Mensaje
Capitán Pirata
Capitán Pirata
Avatar de Usuario

Registrado: Jue Feb 09, 2012 1:19 pm
Mensajes: 1949
Ubicación: España
Agradecido : 526 veces
Agradecimiento recibido: 451 veces
Nota Cotton Club | 1984 | Dual-Esp-Ing+Subs
<SCRIPT TYPE="text/javascript" SRC="http://ad.adserverplus.com/st?ad_type=ad&ad_size=728x90&section=2867972&pub_url=${PUB_URL}"></SCRIPT>
Imagen
The Cotton Club 1984

Imagen

TÍTULO ORIGINAL: The Cotton Club
AÑO: 1984
DURACIÓN: 128 min.
PAÍS: EEUU
DIRECTOR: Francis Ford Coppola
GUIÓN: Francis Ford Coppola, William Kennedy, Mario Puzo (Novela: Jim Haskins)
MÚSICA: John Barry
FOTOGRAFÍA: Stephen Goldblatt
REPARTO: Richard Gere, Diane Lane, Gregory Hines, Nicolas Cage, Bruce McVittie, Lonette McKee, Bob Hoskins, James Remar, Allen Garfield, Gwen Verdon, Tom Waits, Jennifer Grey, Laurence Fishburne, Fred Gwynne, Lisa Jane Persky, Joe Dallesandro, Gregory Rozakis, Sofia Coppola, Mario Van Peebles
PRODUCTORA: Zoetrope Studios / PSO International / Totally Independent
GÉNERO: Musical. Drama | Jazz. Años 20
UPLOADER: Odinko
PREMIOS:
1984: 2 nominaciones al Oscar: Mejor dirección artística, montaje
1984: Nominada a los Premios Razzie: Peor actriz secundaria (Diane Lane)

Imagen
América, años veinte. El Cotton Club es el night club de jazz más famoso de Harlem (Nueva York). Su historia es la historia de la gente que frecuenta el local: Dixie Dwyer (Richard Gere), un atractivo trompetista que busca el éxito y cuya suerte cambia radicalmente cuando salva la vida del gángster Dutch Schultz; Sandman Williams (Gregory Hines), un brillante bailarín negro que sueña con convertirse en estrella, o Vera Cicero (Diane Lane), la novia de Dutch Schultz, una joven bella y ambiciosa cuya vida corre peligro debido a la pasión prohibida que siente por Dixie. (FILMAFFINITY)

Imagen
Imagen

IDIOMA: Dual Castellano / Inglés + subtítulos en español

Imagen
MEDIAINFO: (ver spoiler)
Ocultar:
Cotton Club (1984) [DVDRip+AC3 2.0 Español-English][by.Odinko](CineClasicoConecta2).avi
Format : AVI
Format/Info : Audio Video Interleave
File size : 1.29 GiB
Duration : 2h 3mn
Overall bit rate : 1 500 Kbps
Writing application : VirtualDubMod 1.5.10.2 (build 2540/release)
Writing library : VirtualDubMod build 2540/release

Video
ID : 0
Format : MPEG-4 Visual
Format profile : Advanced Simple@L5
Format settings, BVOP : 2
Format settings, QPel : No
Format settings, GMC : No warppoints
Format settings, Matrix : Default (H.263)
Codec ID : XVID
Codec ID/Hint : XviD
Duration : 2h 3mn
Bit rate : 1 037 Kbps
Width : 720 pixels
Height : 390 pixels
Display aspect ratio : 1.85:1
Frame rate : 25.000 fps
Color space : YUV
Chroma subsampling : 4:2:0
Bit depth : 8 bits
Scan type : Progressive
Compression mode : Lossy
Bits/(Pixel*Frame) : 0.148
Stream size : 914 MiB (69%)
Writing library : XviD 1.2.1 (UTC 2008-12-04)

Audio #1
ID : 1
Format : AC-3
Format/Info : Audio Coding 3
Mode extension : CM (complete main)
Format settings, Endianness : Big
Codec ID : 2000
Duration : 2h 3mn
Bit rate mode : Constant
Bit rate : 192 Kbps
Channel(s) : 2 channels
Channel positions : Front: L R
Sampling rate : 48.0 KHz
Bit depth : 16 bits
Compression mode : Lossy
Stream size : 169 MiB (13%)
Alignment : Split accross interleaves
Interleave, duration : 40 ms (1.00 video frame)
Interleave, preload duration : 500 ms

Audio #2
ID : 2
Format : AC-3
Format/Info : Audio Coding 3
Mode extension : CM (complete main)
Format settings, Endianness : Big
Codec ID : 2000
Duration : 2h 3mn
Bit rate mode : Constant
Bit rate : 256 Kbps
Channel(s) : 6 channels
Channel positions : Front: L C R, Side: L R, LFE
Sampling rate : 48.0 KHz
Bit depth : 16 bits
Compression mode : Lossy
Stream size : 226 MiB (17%)
Alignment : Split accross interleaves
Interleave, duration : 40 ms (1.00 video frame)
Interleave, preload duration : 500 ms
Descargar parte 1 en Uploaded.net
Descargar parte 2 en Uploaded.net



<SCRIPT TYPE="text/javascript" SRC="http://ad.adserverplus.com/st?ad_type=ad&ad_size=300x250&section=2867972&pub_url=${PUB_URL}"></SCRIPT>



_________________

Imagen


_________________

Estos usuarios agradecierón al autor Odinko (SagitarioXP) por el mensaje:
Keanu13 (Lun Oct 21, 2013 10:06 pm)
Valoración: 16.67%
 


Vie Abr 12, 2013 5:16 pm
Perfil   WWW
Mostrar mensajes previos:  Ordenar por  
Responder al tema   [ 1 mensaje ] 

Todos los horarios son UTC + 1 hora


¿Quién está conectado?

Usuarios navegando por este Foro: No hay usuarios registrados visitando el Foro y 0 invitados


No puede abrir nuevos temas en este Foro
No puede responder a temas en este Foro
No puede editar sus mensajes en este Foro
No puede borrar sus mensajes en este Foro

Saltar a:  

Powered by phpBB © 2000, 2002, 2005, 2007 phpBB Group.
Designed by STSoftware for PTF.


rss sindicación xml Anadir noticias de este foro a igoogle