Buscar temas sin respuesta | Ver temas activos Fecha actual Jue Ene 17, 2019 9:29 am

Todos los horarios son UTC + 1 hora







Responder al tema  [ 5 mensajes ] 
 Por mi chica y por mí | 1942 | Dual-Esp-Ing+Subs-Esp-Forz 
Autor Mensaje
Capitán Pirata
Capitán Pirata
Avatar de Usuario

Registrado: Jue Feb 09, 2012 1:19 pm
Mensajes: 1949
Ubicación: España
Agradecido : 526 veces
Agradecimiento recibido: 451 veces
Nota Por mi chica y por mí | 1942 | Dual-Esp-Ing+Subs-Esp-Forz

Imagen


Por mi chica y por mí | 1942 | For Me and My Gal

Imagen

DURACIÓN: 104 min.
PAÍS: Estados Unidos
DIRECTOR: Busby Berkeley
GUIÓN: Richard Sherman, Fred F. Finklehoffe, Sid Silvers (Historia: Howard Emmett Rogers
MÚSICA: Roger Edens, George E. Stoll
FOTOGRAFÍA: William H. Daniels (B&W)
REPARTO: Judy Garland, George Murphy, Gene Kelly, Mártha Eggerth, Ben Blue, Stephen McNally
PRODUCTORA: Metro-Goldwyn-Mayer
GÉNERO: Musical
UPLOADER: Odinko

Imagen
Una pareja de bailarines trata de hacerse un hueco en Broadway poco antes de estallar la Primera Guerra Mundial. (FILMAFFINITY)

Gene Kelly debutando de la mano de una Judy Garland radiante... ¿qué más se puede pedir?

Recuerdo que cuando la vi lo hice por ver a mi querida Dorothy lejos de Oz, porque su carita me encandila, sus ojitos me derriten... pero entonces comenzó a bailar junto a Gene Kelly y me fascinó. Juego de pies. Voz. Potencia. Emoción. Y de repente no podía dejar de mirarlo. Gene Kelly. Y la trama pasó a un segundo plano porque no podía dejar de verlos bailando y cantando con esa irresistible e intensa complicidad que los une.

Lo mejor de todo es que repitieron a manos de Vincente Minnelli en "El Pirata" y "Repertorio de Verano"

Y repito, ¿qué más se puede pedir?

Imagen
Imagen

Quieres ver mas capturas ? (ver spoiler)

Ocultar:

PARA AMPLIAR TAMAÑO CLICK EN CADA IMAGEN
ImagenImagenImagenImagenImagenImagenImagenImagenImagenImagenImagenImagenImagenImagenImagenImagenImagenImagenImagenImagenImagenImagenImagenImagenImagenImagenImagenImagenImagenImagenImagenImagenImagenImagenImagenImagenImagenImagenImagenImagen

También en facebook:
Ocultar:


IDIOMA: Dual Castellano / Inglés con subtítulos en español y forzados para las canciones

Imagen
MEDIAINFO: (Ver Spoiler)
Ocultar:
Por mi chica y por mi (1942).(Dual-Esp-Ing+Subs-Esp-Forz).DvdRip.MPEG2.AC3.by.Odinko.(CineClasicoConecta2).mkv
Format : Matroska
Format version : Version 4 / Version 2
File size : 3.56 GiB
Duration : 1h 39mn
Overall bit rate mode : Variable
Overall bit rate : 5 139 Kbps
Movie name : Por mi chica y por mi ( 1942 ) - MKV creado por Odinko de Cine Clásico Conecta2
Encoded date : UTC 2013-08-05 15:01:54
Writing application : mkvmerge v6.3.0 ('You can't stop me!') built on Jun 27 2013 22:06:07
Writing library : libebml v1.3.0 + libmatroska v1.4.0

Video
ID : 1
Format : MPEG Video
Format version : Version 2
Format profile : Main@Main
Format settings, BVOP : No
Format settings, Matrix : Custom
Codec ID : V_MPEG2
Codec ID/Info : MPEG 1 or 2 Video
Duration : 1h 39mn
Bit rate mode : Variable
Bit rate : 4 653 Kbps
Maximum bit rate : 4 800 Kbps
Width : 720 pixels
Height : 576 pixels
Display aspect ratio : 4:3
Frame rate mode : Constant
Frame rate : 25.000 fps
Standard : PAL
Color space : YUV
Chroma subsampling : 4:2:0
Bit depth : 8 bits
Scan type : Interlaced
Scan order : Top Field First
Compression mode : Lossy
Bits/(Pixel*Frame) : 0.449
Stream size : 3.22 GiB (91%)
Title : Por mi chica y por mi ( 1942 ) - CineClásicoConecta2
Language : English
Default : No
Forced : No

Audio #1
ID : 2
Format : AC-3
Format/Info : Audio Coding 3
Mode extension : CM (complete main)
Format settings, Endianness : Big
Codec ID : A_AC3
Duration : 1h 39mn
Bit rate mode : Constant
Bit rate : 192 Kbps
Channel(s) : 2 channels
Channel positions : Front: L R
Sampling rate : 48.0 KHz
Bit depth : 16 bits
Compression mode : Lossy
Delay relative to video : -80ms
Stream size : 136 MiB (4%)
Title : Castellano AC3
Language : Spanish
Default : Yes
Forced : No

Audio #2
ID : 3
Format : AC-3
Format/Info : Audio Coding 3
Mode extension : CM (complete main)
Format settings, Endianness : Big
Codec ID : A_AC3
Duration : 1h 39mn
Bit rate mode : Constant
Bit rate : 192 Kbps
Channel(s) : 2 channels
Channel positions : Front: L R
Sampling rate : 48.0 KHz
Bit depth : 16 bits
Compression mode : Lossy
Delay relative to video : -80ms
Stream size : 136 MiB (4%)
Title : Inglés AC3
Language : English
Default : No
Forced : No

Text #1
ID : 4
Format : VobSub
Muxing mode : zlib
Codec ID : S_VOBSUB
Codec ID/Info : The same subtitle format used on DVDs
Title : Español
Language : Spanish
Default : Yes
Forced : No

Text #2
ID : 5
Format : VobSub
Muxing mode : zlib
Codec ID : S_VOBSUB
Codec ID/Info : The same subtitle format used on DVDs
Title : Esp. Canciones
Language : Spanish
Default : No
Forced : No

Menu
00:00:00.080 : en:Chapter 01
00:15:11.600 : en:Chapter 02
00:29:14.480 : en:Chapter 03
00:44:56.720 : en:Chapter 04
01:03:47.600 : en:Chapter 05
01:17:00.560 : en:Chapter 06
01:31:26.480 : en:Chapter 07

ImagenPor mi chica y por mi (1942).(Dual-Esp-Ing+Subs-Esp-Forz).(MKV).part1.rar
ImagenPor mi chica y por mi (1942).(Dual-Esp-Ing+Subs-Esp-Forz).(MKV).part2.rar
ImagenPor mi chica y por mi (1942).(Dual-Esp-Ing+Subs-Esp-Forz).(MKV).part3.rar
ImagenPor mi chica y por mi (1942).(Dual-Esp-Ing+Subs-Esp-Forz).(MKV).part4.rar






_________________

Imagen


_________________

Estos usuarios agradecierón al autor Odinko (SagitarioXP) por el mensaje:
Keanu13 (Jue Ago 08, 2013 6:32 pm)
Valoración: 16.67%
 


Vie Jul 19, 2013 5:58 am
Perfil   WWW
Polizón
Polizón

Registrado: Jue Dic 13, 2012 10:16 pm
Mensajes: 4
Agradecido : 5 veces
Agradecimiento recibido: 2 veces
Nota Re: Por mi chica y por mí | 1942 | VOSE
la bajé muy entusiasmado
pero los subtitulos en español aparentemente son de otra pelicula
intenté buscar otros en la red pero no pude conseguir nada
gracias igual


Dom Ago 04, 2013 10:42 pm
Perfil  
Capitán Pirata
Capitán Pirata
Avatar de Usuario

Registrado: Jue Feb 09, 2012 1:19 pm
Mensajes: 1949
Ubicación: España
Agradecido : 526 veces
Agradecimiento recibido: 451 veces
Nota Re: Por mi chica y por mí | 1942 | VOSE
No se como se me pudo pasar.. he retirado temporalmente los enlaces hasta poder subir correctamente la versión con sus subtítulos.
Pido disculpas.

_________________

Imagen


Lun Ago 05, 2013 12:33 am
Perfil   WWW
Capitán Pirata
Capitán Pirata
Avatar de Usuario

Registrado: Jue Feb 09, 2012 1:19 pm
Mensajes: 1949
Ubicación: España
Agradecido : 526 veces
Agradecimiento recibido: 451 veces
Nota Re: Por mi chica y por mí | 1942 | Dual-Esp-Ing+Subs-Esp-For
Solucionado y en compemsación, mejoré la versión con este Dual Castellano / Inglés con subtítulos en español y forzados para las canciones, ripeado por mi del Dvd original :sombrero:

_________________

Imagen


Mié Ago 07, 2013 10:36 pm
Perfil   WWW
Polizón
Polizón

Registrado: Jue Dic 13, 2012 10:16 pm
Mensajes: 4
Agradecido : 5 veces
Agradecimiento recibido: 2 veces
Nota Re: Por mi chica y por mí | 1942 | Dual-Esp-Ing+Subs-Esp-For
gracias por corregir y aumentar esta versión
hasta pronto

_________________

Estos usuarios agradecierón al autor Keanu13 por el mensaje:
Odinko (SagitarioXP) (Jue Ago 08, 2013 7:18 pm)
Valoración: 16.67%
 


Jue Ago 08, 2013 6:33 pm
Perfil  
Mostrar mensajes previos:  Ordenar por  
Responder al tema   [ 5 mensajes ] 

Todos los horarios son UTC + 1 hora


¿Quién está conectado?

Usuarios navegando por este Foro: No hay usuarios registrados visitando el Foro y 1 invitado


No puede abrir nuevos temas en este Foro
No puede responder a temas en este Foro
No puede editar sus mensajes en este Foro
No puede borrar sus mensajes en este Foro

Saltar a:  

Powered by phpBB © 2000, 2002, 2005, 2007 phpBB Group.
Designed by STSoftware for PTF.


rss sindicación xml Anadir noticias de este foro a igoogle