Buscar temas sin respuesta | Ver temas activos Fecha actual Jue Ene 17, 2019 9:28 am

Todos los horarios son UTC + 1 hora







Responder al tema  [ 1 mensaje ] 
 Nuestros maravillosos aliados | 1987 | Dual-Esp-Ing+Subs-Esp 
Autor Mensaje
Capitán Pirata
Capitán Pirata
Avatar de Usuario

Registrado: Jue Feb 09, 2012 1:19 pm
Mensajes: 1949
Ubicación: España
Agradecido : 526 veces
Agradecimiento recibido: 451 veces
Nota Nuestros maravillosos aliados | 1987 | Dual-Esp-Ing+Subs-Esp

Imagen


Nuestros maravillosos aliados | 1987 | Batteries not Included

Imagen

OTROS TÍTULOS: Milagro en la calle 8 | Miracle on 8th Street |
DURACIÓN: 106 min.
PAÍS: EE.UU
DIRECTOR: Matthew Robbins
GUIÓN: Brad Bird, Matthew Robbins, Brent Maddock, S.S. Wilson (Argumento: Mick Garris)
MÚSICA: James Horner
FOTOGRAFÍA: John McPherson
REPARTO: Hume Cronyn, Michael Carmine, Jessica Tandy, Frank McRae, Elizabeth Pena, Dennis Boutsikaris
PRODUCTORA: Amblin Entertainment
GÉNERO: Fantástico. Ciencia ficción. Comedia | Extraterrestres. Cine familiar
UPLOADER: Odinko

Imagen
Los empobrecidos residentes de un bloque de apartamentos amenazado de demolición por un grupo de especuladores del suelo consiguen la ayuda milagrosa que esperaban en forma de unos pequeños platillos volantes extraterrestres que necesitan la electricidad suministrada por los apartamentos para sobrevivir. En agradecimiento lucharán con ellos contra los especuladores. Una característica cinta con toda la marca del sello Amblin, productora de Spielberg.

Imagen
Imagen

IDIOMA: Dual Castellano / Inglés con subtítulos en español

Imagen
MEDIAINFO: (Ver Spoiler)
Ocultar:
Nuestros.Maravillosos.Aliados.(1987 ).(Dual-Esp-Ing+Subs-Esp).DVD-Rip.XviD-AC3.by.Odinko.(CineClasicoConecta2).mkv
Format : Matroska
Format version : Version 2
File size : 1.55 GiB
Duration : 1h 42mn
Overall bit rate : 2 180 Kbps
Movie name : La gata sobre el tejado de zinc (1958) - MKV creado por Odinko de Cine Clásico Conecta2
Encoded date : UTC 2013-06-26 00:07:49
Writing application : mkvmerge v5.8.0 ('No Sleep / Pillow') built on Sep 2 2012 15:37:04
Writing library : libebml v1.2.3 + libmatroska v1.3.0

Video
ID : 1
Format : MPEG-4 Visual
Format profile : Advanced Simple@L5
Format settings, BVOP : Yes
Format settings, QPel : No
Format settings, GMC : No warppoints
Format settings, Matrix : Default (H.263)
Codec ID : V_MS/VFW/FOURCC / XVID
Codec ID/Hint : XviD
Duration : 1h 42mn
Bit rate : 1 753 Kbps
Width : 720 pixels
Height : 400 pixels
Display aspect ratio : 16:9
Frame rate mode : Constant
Frame rate : 25.000 fps
Color space : YUV
Chroma subsampling : 4:2:0
Bit depth : 8 bits
Scan type : Progressive
Compression mode : Lossy
Bits/(Pixel*Frame) : 0.243
Stream size : 1.25 GiB (80%)
Writing library : XviD 1.2.1 (UTC 2008-12-04)
Default : Yes
Forced : No

Audio #1
ID : 2
Format : AC-3
Format/Info : Audio Coding 3
Format profile : Dolby Digital
Mode extension : CM (complete main)
Format settings, Endianness : Big
Muxing mode : Header stripping
Codec ID : A_AC3
Duration : 1h 42mn
Bit rate mode : Constant
Bit rate : 192 Kbps
Channel(s) : 2 channels
Channel positions : Front: L R
Sampling rate : 48.0 KHz
Bit depth : 16 bits
Compression mode : Lossy
Stream size : 140 MiB (9%)
Title : AC3.Castellano
Language : Spanish
Default : Yes
Forced : No

Audio #2
ID : 3
Format : AC-3
Format/Info : Audio Coding 3
Mode extension : CM (complete main)
Format settings, Endianness : Big
Muxing mode : Header stripping
Codec ID : A_AC3
Duration : 1h 42mn
Bit rate mode : Constant
Bit rate : 192 Kbps
Channel(s) : 2 channels
Channel positions : Front: L R
Sampling rate : 48.0 KHz
Bit depth : 16 bits
Compression mode : Lossy
Stream size : 140 MiB (9%)
Title : AC3.Inglés (V.O.)
Language : English
Default : No
Forced : No

Text
ID : 4
Format : UTF-8
Codec ID : S_TEXT/UTF8
Codec ID/Info : UTF-8 Plain Text
Title : Español
Default : Yes
Forced : No

Menu
00:00:00.000 : en:Chapter 1
00:10:00.000 : en:Chapter 2
00:20:00.000 : en:Chapter 3
00:30:00.000 : en:Chapter 4
00:40:00.000 : en:Chapter 5
00:50:00.000 : en:Chapter 6
01:00:00.000 : en:Chapter 7
01:05:00.000 : en:Chapter 8
01:10:00.000 : en:Chapter 9
01:15:00.000 : en:Chapter 10
01:20:00.000 : en:Chapter 20
ImagenNuestros.Maravillosos.Aliados.(1987 ).(Dual-Esp-Ing+Subs-Esp).(MKV).part1.rar
ImagenNuestros.Maravillosos.Aliados.(1987 ).(Dual-Esp-Ing+Subs-Esp).(MKV).part2.rar






_________________



Mié Feb 22, 2012 1:59 am
Perfil   WWW
Mostrar mensajes previos:  Ordenar por  
Responder al tema   [ 1 mensaje ] 

Todos los horarios son UTC + 1 hora


¿Quién está conectado?

Usuarios navegando por este Foro: No hay usuarios registrados visitando el Foro y 1 invitado


No puede abrir nuevos temas en este Foro
No puede responder a temas en este Foro
No puede editar sus mensajes en este Foro
No puede borrar sus mensajes en este Foro

Saltar a:  

Powered by phpBB © 2000, 2002, 2005, 2007 phpBB Group.
Designed by STSoftware for PTF.


rss sindicación xml Anadir noticias de este foro a igoogle