Buscar temas sin respuesta | Ver temas activos Fecha actual Mar Jun 25, 2019 11:28 am

Todos los horarios son UTC + 1 hora [ DST ]







Responder al tema  [ 1 mensaje ] 
 20.000 leguas de viaje submarino | 1916 | Muda+Subs-Esp-Ing 
Autor Mensaje
Capitán Pirata
Capitán Pirata
Avatar de Usuario

Registrado: Jue Feb 09, 2012 2:19 pm
Mensajes: 1949
Ubicación: España
Agradecido : 526 veces
Agradecimiento recibido: 451 veces
Nota 20.000 leguas de viaje submarino | 1916 | Muda+Subs-Esp-Ing

Imagen


20.000 leguas de viaje submarino | 1916 | 20,000 Leagues Under the Sea

Imagen

DURACIÓN: 105 min.
PAÍS: Estados Unidos
DIRECTOR: Stuart Paton
GUIÓN: Stuart Paton (Novela: Julio Verne)
MÚSICA: Película muda / Versión restaurada: Brian Benison (1991)
FOTOGRAFÍA: Eugene Gaudio (B&N)
REPARTO: Joseph W. Girard, Dan Hanlon, Allen Holubar, Lois Alexander, Curtis Benton, Wallace Clarke, Howard Crampton, Jane Gail
PRODUCTORA: Universal Film Manufacturing Company / Williamson Submarine Film Corporation
GÉNERO: Fantástico. Aventuras. Ciencia ficción | Cine mudo
UPLOADER: Odinko

Imagen
Primera versión de la conocida novela de Julio Verne, que contó a lo largo de los años con nuevas adaptaciones, siendo la más conocida la de 1954, dirigida por Richard Fleischer y protagonizada por Kirk Douglas. (FILMAFFINITY)

Esta película se hizo famoso por su trabajo pionero en la filmación submarina por George y Ernest Williamson.

Veinte mil leguas de viaje submarino (en francés: Vingt mille lieues sous les mers) es una de las obras literarias más conocidas del escritor francés Julio Verne, escrita en 1869. Esta historia fue escrita en dos partes, mucho tiempo antes de que los submarinos fueran realidad.
El Capitán Nemo ha construido un fantástico submarino para su misión de venganza. Ha atravesado 20.000 leguas en busca de Charles Denver, el hombre que mató a la princesa Daaker. Basada en el clásico de Julio Verne, incluye imágenes del primitivo submarino y la lucha con un gigantesco pulpo. La película incorporó, por primera vez en la historia, imagenes filmadas bajo el agua.

Imagen
Imagen

IDIOMA: Dual Castellano / Inglés con subtítulos en español

Imagen
MEDIAINFO: (Ver Spoiler)
Ocultar:
20.000 leguas de viaje submarino (1916).(Muda+Subs-Esp-Ing).(VOSE).DIV3.Mp3.by.Odinko.(CineClasicoConecta2).mkv
Format : Matroska
Format version : Version 4 / Version 2
File size : 671 MiB
Duration : 1h 40mn
Overall bit rate : 931 Kbps
Movie name : 20.000 leguas de viaje submarino (1916) - MKV creado por Odinko de Cine Clásico Conecta2
Encoded date : UTC 2013-07-22 13:50:06
Writing application : mkvmerge v6.3.0 ('You can't stop me!') built on Jun 27 2013 22:06:07
Writing library : libebml v1.3.0 + libmatroska v1.4.0

Video
ID : 2
Format : MPEG-4 Visual
Codec ID : V_MS/VFW/FOURCC / DIV3
Codec ID/Hint : DivX 3 Low
Duration : 1h 40mn
Bit rate : 785 Kbps
Width : 640 pixels
Height : 480 pixels
Display aspect ratio : 4:3
Frame rate mode : Constant
Frame rate : 29.970 fps
Color space : YUV
Chroma subsampling : 4:2:0
Bit depth : 8 bits
Compression mode : Lossy
Bits/(Pixel*Frame) : 0.085
Stream size : 565 MiB (84%)
Default : Yes
Forced : No

Audio
ID : 3
Format : MPEG Audio
Format version : Version 1
Format profile : Layer 3
Mode : Joint stereo
Mode extension : MS Stereo
Codec ID : A_MPEG/L3
Codec ID/Hint : MP3
Duration : 1h 40mn
Bit rate mode : Constant
Bit rate : 128 Kbps
Channel(s) : 2 channels
Sampling rate : 48.0 KHz
Compression mode : Lossy
Stream size : 92.2 MiB (14%)
Title : Música Brian Benison (1991)
Default : Yes
Forced : No

Text
ID : 1
Format : UTF-8
Codec ID : S_TEXT/UTF8
Codec ID/Info : UTF-8 Plain Text
Title : Español
Language : Spanish
Default : Yes
Forced : No

Menu
00:00:00.000 : en:Chapter 1
00:10:00.000 : en:Chapter 2
00:20:00.000 : en:Chapter 3
00:30:00.000 : en:Chapter 4
00:40:00.000 : en:Chapter 5
00:50:00.000 : en:Chapter 6
01:00:00.000 : en:Chapter 7
01:05:00.000 : en:Chapter 8
01:10:00.000 : en:Chapter 9
01:15:00.000 : en:Chapter 10
01:20:00.000 : en:Chapter 20
Imagen20.000 leguas de viaje submarino (1916).(Muda+Subs-Esp-Ing).(VOSE).(MKV).rar






_________________

Imagen



Lun Jul 22, 2013 9:32 pm
Perfil   WWW
Mostrar mensajes previos:  Ordenar por  
Responder al tema   [ 1 mensaje ] 

Todos los horarios son UTC + 1 hora [ DST ]


¿Quién está conectado?

Usuarios navegando por este Foro: No hay usuarios registrados visitando el Foro y 1 invitado


No puede abrir nuevos temas en este Foro
No puede responder a temas en este Foro
No puede editar sus mensajes en este Foro
No puede borrar sus mensajes en este Foro

Saltar a:  

Powered by phpBB © 2000, 2002, 2005, 2007 phpBB Group.
Designed by STSoftware for PTF.


rss sindicación xml Anadir noticias de este foro a igoogle