Buscar temas sin respuesta | Ver temas activos Fecha actual Mar Jun 25, 2019 11:29 am

Todos los horarios son UTC + 1 hora [ DST ]







Responder al tema  [ 3 mensajes ] 
 Cara de amor | 1937 | Frances+Subs-Esp | (VOSE) 
Autor Mensaje
Capitán Pirata
Capitán Pirata
Avatar de Usuario

Registrado: Jue Feb 09, 2012 2:19 pm
Mensajes: 1949
Ubicación: España
Agradecido : 526 veces
Agradecimiento recibido: 451 veces
Nota Cara de amor | 1937 | Frances+Subs-Esp | (VOSE)

Imagen


Cara de amor | 1937 | Gueule d'amour

Imagen

DURACIÓN: 94 min.
PAÍS: Francia
DIRECTOR: Jean Grémillon
GUIÓN: Charles Spaak (Novela: André Beucler)
MÚSICA: Lothar Brühne
FOTOGRAFÍA: Günther Rittau (B&W)
REPARTO: Jean Gabin, Mireille Balin, René Lefèvre, Marguerite Deval, Jane Marken, Jean Aymé, André Carnège, Henri Poupon, Pierre Magnier, Lucien Dayle, Bill Bocket, Pierre Etchepare, André Siméon, Paul Fournier, Maurice Baquet
PRODUCTORA: Coproducción Francia-Alemania; L'Alliance Cinématographique Européenne (ACE) / Universum Film (UFA)
GÉNERO: Drama. Romance. Bélico | Crimen
UPLOADER: Odinko
CARÁTULA: Por cortesía de Gator960

Imagen
Lucien Bourrache es un legionario que cautiva a cualquier mujer que encuentra, lo que le vale el apodo de Gueule d'Amour ("Cara o Jeta o Morro de Amor"). Pero un día conoce a una mujer joven y bella que lo cautiva. Al principio parece corresponder sus sentimientos, pero más tarde Lucien comienza a temer que ella está jugando con él. ¿Está realmente enamorada de él o es sólo una aventurera que lo manipula?

En esta adaptación notable del libro de André Beucler, Jean Gabin interpreta uno de sus papeles más conmovedores, memorables y trágicos. Jean Grémillon le da un sentido sobrio y melancólico a la historia, llena del sentido de tristeza y malos presentimientos que eran omnipresentes en el cine francés de ese momento. (FILMAFFINITY)

Imagen
Imagen

IDIOMA: Francés con subtítulos en español (V.O.S.E.)

Imagen
MEDIAINFO: (Ver Spoiler)
Ocultar:
Cara de amor .(1937).(Frances+Subs-Esp).(VOSE).DX50.Mp3.by.Odinko.(CineClasicoConecta2).mkv
Format : Matroska
Format version : Version 4 / Version 2
File size : 693 MiB
Duration : 1h 28mn
Overall bit rate mode : Variable
Overall bit rate : 1 097 Kbps
Movie name : Cara de amor (1937) - MKV creado por Odinko de Cine Clásico Conecta2
Encoded date : UTC 2013-07-28 02:58:06
Writing application : mkvmerge v6.3.0 ('You can't stop me!') built on Jun 27 2013 22:06:07
Writing library : libebml v1.3.0 + libmatroska v1.4.0

Video
ID : 2
Format : MPEG-4 Visual
Format settings, BVOP : Yes
Format settings, QPel : No
Format settings, GMC : No warppoints
Format settings, Matrix : Default (H.263)
Codec ID : V_MS/VFW/FOURCC / DX50
Codec ID/Hint : DivX 5
Duration : 1h 28mn
Bit rate : 940 Kbps
Width : 696 pixels
Height : 512 pixels
Display aspect ratio : 4:3
Frame rate mode : Constant
Frame rate : 25.000 fps
Color space : YUV
Chroma subsampling : 4:2:0
Bit depth : 8 bits
Scan type : Progressive
Compression mode : Lossy
Bits/(Pixel*Frame) : 0.105
Stream size : 593 MiB (86%)
Writing library : DivX 5.0.5 (UTC 2003-04-24)
Default : Yes
Forced : No

Audio
ID : 3
Format : MPEG Audio
Format version : Version 1
Format profile : Layer 3
Mode : Joint stereo
Mode extension : MS Stereo
Codec ID : A_MPEG/L3
Codec ID/Hint : MP3
Duration : 1h 28mn
Bit rate mode : Variable
Bit rate : 136 Kbps
Nominal bit rate : 128 Kbps
Channel(s) : 2 channels
Sampling rate : 48.0 KHz
Compression mode : Lossy
Stream size : 85.7 MiB (12%)
Title : Frances
Writing library : LAME3.90.
Encoding settings : -m j -V 4 -q 2 -lowpass 17.6 --abr 128
Language : French
Default : Yes
Forced : No

Text
ID : 1
Format : UTF-8
Codec ID : S_TEXT/UTF8
Codec ID/Info : UTF-8 Plain Text
Title : Español
Language : Spanish
Default : Yes
Forced : No

Menu
00:00:00.000 : en:Chapter 1
00:10:00.000 : en:Chapter 2
00:20:00.000 : en:Chapter 3
00:30:00.000 : en:Chapter 4
00:40:00.000 : en:Chapter 5
00:50:00.000 : en:Chapter 6
01:00:00.000 : en:Chapter 7
01:05:00.000 : en:Chapter 8
01:10:00.000 : en:Chapter 9
01:15:00.000 : en:Chapter 10
01:20:00.000 : en:Chapter 20
ImagenCara de amor .(1937).(Frances+Subs-Esp).(VOSE).(MKV).rar






_________________

Imagen


_________________

Estos usuarios agradecierón al autor Odinko (SagitarioXP) por el mensaje (total 2):
gator960 (Mié Jul 31, 2013 7:16 pm) • Nikita (Mié Jul 31, 2013 1:28 am)
Valoración: 33.33%
 


Mié Jul 31, 2013 1:26 am
Perfil   WWW
Capitán Pirata
Capitán Pirata
Avatar de Usuario

Registrado: Jue Feb 09, 2012 2:19 pm
Mensajes: 1949
Ubicación: España
Agradecido : 526 veces
Agradecimiento recibido: 451 veces
Nota Gracias por la carátula !
Muchísimas :gracias1: Gator960 por esta preciosa carátula que diseñaste para el post de la película :sombrero:

Quedó de :10+10+10:

_________________

Imagen


Mié Jul 31, 2013 7:03 pm
Perfil   WWW
Editor audio/video/subt
Editor audio/video/subt
Avatar de Usuario

Registrado: Vie Jun 08, 2012 8:44 pm
Mensajes: 18
Agradecido : 5 veces
Agradecimiento recibido: 5 veces
Nota Re: Cara de amor | 1937 | Frances+Subs-Esp | (VOSE)
Bueno genial, me alegra ser parte de la tripulación Capitan. (ola)

_________________

Estos usuarios agradecierón al autor gator960 por el mensaje:
Odinko (SagitarioXP) (Mié Jul 31, 2013 7:24 pm)
Valoración: 16.67%
 


Mié Jul 31, 2013 7:18 pm
Perfil  
Mostrar mensajes previos:  Ordenar por  
Responder al tema   [ 3 mensajes ] 

Todos los horarios son UTC + 1 hora [ DST ]


¿Quién está conectado?

Usuarios navegando por este Foro: No hay usuarios registrados visitando el Foro y 1 invitado


No puede abrir nuevos temas en este Foro
No puede responder a temas en este Foro
No puede editar sus mensajes en este Foro
No puede borrar sus mensajes en este Foro

Saltar a:  

Powered by phpBB © 2000, 2002, 2005, 2007 phpBB Group.
Designed by STSoftware for PTF.


rss sindicación xml Anadir noticias de este foro a igoogle