Buscar temas sin respuesta | Ver temas activos Fecha actual Lun Feb 19, 2018 3:15 am

Todos los horarios son UTC + 1 hora



Responder al tema  [ 4 mensajes ] 
 La version Browning | 1951 | Dual-Esp-Ing+Subs-Esp 
Autor Mensaje
Capitán Pirata
Capitán Pirata
Avatar de Usuario

Registrado: Jue Feb 09, 2012 1:19 pm
Mensajes: 1949
Ubicación: España
Agradecido : 526 veces
Agradecimiento recibido: 451 veces
Nota La version Browning | 1951 | Dual-Esp-Ing+Subs-Esp

Imagen


La versión Browning | 1951 | The Browning Version

Imagen

DURACIÓN: 90 min.
PAÍS: Reino Unido
DIRECTOR: Anthony Asquith
GUIÓN: Terence Rattigan (Obra: Terence Rattigan)
MÚSICA: Ludwig van Beethoven
FOTOGRAFÍA: Desmond Dickinson (B&W)
REPARTO: Michael Redgrave, Jean Kent, Nigel Patrick, Ronald Howard, Brian Smith, Wilfrid Hyde-White
PRODUCTORA: The Rank Organisation
GÉNERO: Drama, Colegios & Universidad
UPLOADER: Odinko

PREMIOS:1951: Festival de Cannes: Mejor guión (Terence Rattigan), mejor actor (Michael Redgrave)

Imagen
Adaptación de la exitosa obra de teatro de Terence Rattigan. En 1994 Mike Figgis dirigió un remake protagonizado por Albert Finney y Greta Scacchi.

Imagen
Imagen

IDIOMA: Dual Castellano / Inglés con subtítulos en español

Imagen
MEDIAINFO: (Ver Spoiler)
Ocultar:
La versión Browning (1951).(Dual-Esp-Ing+Subs-Esp).(.srt+.ssa).DvdRip.XviD.Ac3.Mp3.by.Odinko.(CineClasicoConecta2).mkv
Format : Matroska
Format version : Version 4 / Version 2
File size : 1.39 GiB
Duration : 1h 30mn
Overall bit rate : 2 215 Kbps
Movie name : La versión Browing ( 1951 ) - MKV creado por Odinko de Cine Clásico Conecta2
Encoded date : UTC 2013-08-06 09:35:14
Writing application : mkvmerge v6.3.0 ('You can't stop me!') built on Jun 28 2013 20:09:41
Writing library : libebml v1.3.0 + libmatroska v1.4.0

Video
ID : 1
Format : MPEG-4 Visual
Format profile : Simple@L3
Format settings, BVOP : No
Format settings, QPel : No
Format settings, GMC : No warppoints
Format settings, Matrix : Default (H.263)
Codec ID : V_MS/VFW/FOURCC / XVID
Codec ID/Hint : XviD
Duration : 1h 30mn
Bit rate : 1 851 Kbps
Width : 640 pixels
Height : 480 pixels
Display aspect ratio : 4:3
Frame rate mode : Constant
Frame rate : 23.976 fps
Color space : YUV
Chroma subsampling : 4:2:0
Bit depth : 8 bits
Scan type : Progressive
Compression mode : Lossy
Bits/(Pixel*Frame) : 0.251
Stream size : 1.17 GiB (84%)
Title : La versión Browing 1951 - CineClasicoConecta2
Writing library : XviD 1.1.2 (UTC 2006-11-01)
Language : English
Default : Yes
Forced : No

Audio #1
ID : 2
Format : MPEG Audio
Format version : Version 1
Format profile : Layer 3
Mode : Joint stereo
Codec ID : A_MPEG/L3
Codec ID/Hint : MP3
Duration : 1h 30mn
Bit rate mode : Constant
Bit rate : 128 Kbps
Channel(s) : 2 channels
Sampling rate : 48.0 KHz
Compression mode : Lossy
Stream size : 82.5 MiB (6%)
Title : Castellano MP3
Writing library : LAME3.92
Encoding settings : -m j -V 1 -q 2 -lowpass 19.5 -b 128
Language : Spanish
Default : Yes
Forced : No

Audio #2
ID : 3
Format : AC-3
Format/Info : Audio Coding 3
Mode extension : CM (complete main)
Format settings, Endianness : Big
Codec ID : A_AC3
Duration : 1h 30mn
Bit rate mode : Constant
Bit rate : 192 Kbps
Channel(s) : 1 channel
Channel positions : Front: C
Sampling rate : 48.0 KHz
Bit depth : 16 bits
Compression mode : Lossy
Stream size : 124 MiB (9%)
Title : Inglés AC3
Language : English
Default : No
Forced : No

Text #1
ID : 4
Format : UTF-8
Codec ID : S_TEXT/UTF8
Codec ID/Info : UTF-8 Plain Text
Title : Español.srt
Language : Spanish
Default : Yes
Forced : No

Text #2
ID : 5
Format : SSA
Codec ID : S_TEXT/SSA
Codec ID/Info : Sub Station Alpha
Compression mode : Lossless
Title : Español.ssa
Default : No
Forced : No

Menu
00:00:00.000 : en:Chapter 1
00:10:00.000 : en:Chapter 2
00:20:00.000 : en:Chapter 3
00:30:00.000 : en:Chapter 4
00:40:00.000 : en:Chapter 5
00:50:00.000 : en:Chapter 6
01:00:00.000 : en:Chapter 7
01:05:00.000 : en:Chapter 8
01:10:00.000 : en:Chapter 9
01:15:00.000 : en:Chapter 10
01:20:00.000 : en:Chapter 20

ImagenLa versión Browning (1951).(Dual-Esp-Ing+Subs-Esp).(MKV).(MKV).part2.rar
ImagenLa versión Browning (1951).(Dual-Esp-Ing+Subs-Esp).(MKV).(MKV).part1.rar






_________________

Imagen

_________________

Estos usuarios agradecierón al autor Odinko (SagitarioXP) por el mensaje:
Anselmo (Mar Ago 13, 2013 6:26 pm)
Valoración: 16.67%
 


Mar Ago 13, 2013 10:47 am
Perfil   WWW
Polizón
Polizón

Registrado: Dom Abr 01, 2012 11:36 am
Mensajes: 24
Agradecido : 2 veces
Agradecimiento recibido: 7 veces
Nota Re: La version Browning | 1951 | Dual-Esp-Ing+Subs-Esp
Hola, Odinko: Veo que eres un hombre de palabra. Jejejé. Dijiste que subirías la película y lo has hecho. ¿La has visto? ¿Te ha gustado? A mi me gustó muchísimo en su momento.

Recomendable a todo el mundo si quereis ver cine del bueno. Como se hacía antes.

Un abrazo, Odinko, y hasta pronto.

_________________

Estos usuarios agradecierón al autor Anselmo por el mensaje:
Odinko (SagitarioXP) (Mar Ago 13, 2013 7:32 pm)
Valoración: 16.67%
 


Mar Ago 13, 2013 6:25 pm
Perfil  
Capitán Pirata
Capitán Pirata
Avatar de Usuario

Registrado: Jue Feb 09, 2012 1:19 pm
Mensajes: 1949
Ubicación: España
Agradecido : 526 veces
Agradecimiento recibido: 451 veces
Nota Re: La version Browning | 1951 | Dual-Esp-Ing+Subs-Esp
Si prometo que subo una peli, siempre cumplo :choca:
Aun no tuve lugar a verla por falta de tiempo, pero sin duda lo haré y mas con recomendación que viene por tu parte.

Espero que disfrutes de ella revisionándola.

Un abrazo Anselmo :micolega:

_________________

Imagen


Mar Ago 13, 2013 7:32 pm
Perfil   WWW
Corsari@ Mod.
Corsari@ Mod.
Avatar de Usuario

Registrado: Mié Feb 29, 2012 9:29 pm
Mensajes: 584
Agradecido : 1 vez
Agradecimiento recibido: 104 veces
Nota Re: La version Browning | 1951 | Dual-Esp-Ing+Subs-Esp
Es buenísima, y yo creía que la había posteado allá por Noviembre de 2012, pero se ve que se me pasó.

Pongo mi comentario y links opcionales

Fantástica película que he conocido al descubrir en la televisión el igualmente fantástico remake de 1994 (remake que sin embargo no he conseguido descargarme). De similar calidad, es interesante ver ambas versiones por sus pequeñas diferencias: mientras en el original la mujer es permanentemente odiosa y determinado incidente sólo eleva ligeramente su constante nivel de ninguneamiento marital, en el remake la mujer (cuya personalidad resulta menos perfilada) es igualmente patética y en general algo menos odiosa pero el punto de mezquindad alcanzado en aquél momento consigue despuntar. Podríamos decir que en la original el nivel de “odiosidad” medio es de 8 y se eleva puntualmente a 8´5 mientras que en el remake el nivel medio es de 7 pero alcanza el 9´5 en dicho momento. También varían ligeramente las actitudes del alumno Pablow y el profesor recién llegado, y es un buen detalle la aparición de antiguos alumnos que aún tiemblan ante su viejo profesor pero también le aprecian..

http://depositfiles.com/files/bdf1w189d dual 1.4GB
http://depositfiles.com/files/viv5srhbh castellano 609MB

_________________
ATENCIÓN: algunos gestores de descarga dan fallos con archivos en DepositFiles. Si te pasa, antes de notificarme el fallo, por favor prueba a poner el link DIRECTAMENTE en el navegador. Si aún así ves un enlace caído POR FAVOR, no dejes de avisarme.

_________________

Estos usuarios agradecierón al autor CGdP Vlazeck por el mensaje:
Odinko (SagitarioXP) (Mié Ago 28, 2013 11:50 am)
Valoración: 16.67%
 


Jue Ago 15, 2013 2:06 pm
Perfil   WWW
Mostrar mensajes previos:  Ordenar por  
Responder al tema   [ 4 mensajes ] 

Todos los horarios son UTC + 1 hora


¿Quién está conectado?

Usuarios navegando por este Foro: No hay usuarios registrados visitando el Foro y 1 invitado


No puede abrir nuevos temas en este Foro
No puede responder a temas en este Foro
No puede editar sus mensajes en este Foro
No puede borrar sus mensajes en este Foro

Saltar a:  
Powered by phpBB © 2000, 2002, 2005, 2007 phpBB Group.
Designed by STSoftware for PTF.


rss sindicación xml Anadir noticias de este foro a igoogle