Buscar temas sin respuesta | Ver temas activos Fecha actual Jue Ene 17, 2019 9:38 am

Todos los horarios son UTC + 1 hora







Responder al tema  [ 2 mensajes ] 
 La guerra del opio | 1998 | Dual-Esp-Chi+Subs-Esp 
Autor Mensaje
Capitán Pirata
Capitán Pirata
Avatar de Usuario

Registrado: Jue Feb 09, 2012 1:19 pm
Mensajes: 1949
Ubicación: España
Agradecido : 526 veces
Agradecimiento recibido: 451 veces
Nota La guerra del opio | 1998 | Dual-Esp-Chi+Subs-Esp

Imagen


La guerra del opio | 1998 | Yapian zhanzheng (The Opium War)

Imagen

DURACIÓN: 111 min.
PAÍS: China
DIRECTOR: Xie Jin
GUIÓN: Xie Jin
MÚSICA: Wang Yongji
FOTOGRAFÍA: Hou Yong
REPARTO: Bao Guoan, Lin Liankun, Su Min, Lang Xiong, Bob Peck, Simon Williams, Emma Griffiths Malin, Philip Jackson, Corin Redgrave, Debra Beaumont
PRODUCTORA: Coproducción China-Japón
GÉNERO: Drama | Siglo XIX. Colonialismo. Histórico
UPLOADER: Odinko

Imagen
Superproducción sobre el proceso de conquista y colonización de Hong Kong por los británicos. La historia comienza cuando el emperador ordena en 1839 combatir el tráfico de opio provocando con este gesto la ira de los comerciantes de Reino Unido.

Imagen
Imagen

IDIOMA: Dual Castellano / Chino con subtítulos en español (V.O.S.E.)

Imagen
MEDIAINFO: (Ver Spoiler)
Ocultar:
La Guerra del Opio (Yapian zhanzheng) (1998).(Dual-Esp-Chi+Subs-Esp).DVDRipXviD.AC3.by.Odinko.(CineClasicoConecta2).mkv
Format : Matroska
Format version : Version 4 / Version 2
File size : 1.36 GiB
Duration : 1h 46mn
Overall bit rate : 1 830 Kbps
Movie name : La guerra del opio (1997) - MKV creado por Odinko de Cine Clásico Conecta2
Encoded date : UTC 2013-07-02 06:24:14
Writing application : mkvmerge v6.3.0 ('You can't stop me!') built on Jun 27 2013 22:06:07
Writing library : libebml v1.3.0 + libmatroska v1.4.0

Video
ID : 2
Format : MPEG-4 Visual
Format profile : Advanced Simple@L5
Format settings, BVOP : Yes
Format settings, QPel : No
Format settings, GMC : No warppoints
Format settings, Matrix : Custom
Codec ID : V_MS/VFW/FOURCC / XVID
Codec ID/Hint : XviD
Duration : 1h 46mn
Bit rate : 1 282 Kbps
Width : 672 pixels
Height : 304 pixels
Display aspect ratio : 2.2:1
Frame rate mode : Constant
Frame rate : 25.000 fps
Color space : YUV
Chroma subsampling : 4:2:0
Bit depth : 8 bits
Scan type : Progressive
Compression mode : Lossy
Bits/(Pixel*Frame) : 0.251
Stream size : 978 MiB (70%)
Writing library : XviD 1.3.0.dev55
Default : Yes
Forced : No

Audio #1
ID : 3
Format : AC-3
Format/Info : Audio Coding 3
Format profile : Dolby Digital
Mode extension : CM (complete main)
Format settings, Endianness : Big
Codec ID : A_AC3
Duration : 1h 46mn
Bit rate mode : Constant
Bit rate : 256 Kbps
Channel(s) : 2 channels
Channel positions : Front: L R
Sampling rate : 48.0 KHz
Bit depth : 16 bits
Compression mode : Lossy
Stream size : 195 MiB (14%)
Default : Yes
Forced : No

Audio #2
ID : 4
Format : AC-3
Format/Info : Audio Coding 3
Format profile : Dolby Digital
Mode extension : CM (complete main)
Format settings, Endianness : Big
Codec ID : A_AC3
Duration : 1h 46mn
Bit rate mode : Constant
Bit rate : 256 Kbps
Channel(s) : 2 channels
Channel positions : Front: L R
Sampling rate : 48.0 KHz
Bit depth : 16 bits
Compression mode : Lossy
Stream size : 195 MiB (14%)
Default : No
Forced : No

Text
ID : 1
Format : UTF-8
Codec ID : S_TEXT/UTF8
Codec ID/Info : UTF-8 Plain Text
Default : Yes
Forced : No

Menu
00:00:00.000 : en:Chapter 1
00:10:00.000 : en:Chapter 2
00:20:00.000 : en:Chapter 3
00:30:00.000 : en:Chapter 4
00:40:00.000 : en:Chapter 5
00:50:00.000 : en:Chapter 6
01:00:00.000 : en:Chapter 7
01:05:00.000 : en:Chapter 8
01:10:00.000 : en:Chapter 9
01:15:00.000 : en:Chapter 10
01:20:00.000 : en:Chapter 20
ImagenLa Guerra del Opio (1998).(Dual-Esp-Chi+Subs-Esp).(MKV).part1.rar
ImagenLa Guerra del Opio (1998).(Dual-Esp-Chi+Subs-Esp).(MKV).part2.rar






_________________



Vie May 04, 2012 2:51 pm
Perfil   WWW
Polizón
Polizón

Registrado: Lun Feb 27, 2012 2:30 pm
Mensajes: 52
Agradecido : 6 veces
Agradecimiento recibido: 2 veces
Nota 
Parece interesante, gracias por compartirla.


Vie May 04, 2012 5:28 pm
Perfil  
Mostrar mensajes previos:  Ordenar por  
Responder al tema   [ 2 mensajes ] 

Todos los horarios son UTC + 1 hora


¿Quién está conectado?

Usuarios navegando por este Foro: No hay usuarios registrados visitando el Foro y 1 invitado


No puede abrir nuevos temas en este Foro
No puede responder a temas en este Foro
No puede editar sus mensajes en este Foro
No puede borrar sus mensajes en este Foro

Saltar a:  

Powered by phpBB © 2000, 2002, 2005, 2007 phpBB Group.
Designed by STSoftware for PTF.


rss sindicación xml Anadir noticias de este foro a igoogle