Buscar temas sin respuesta | Ver temas activos Fecha actual Mar Jun 25, 2019 11:27 am

Todos los horarios son UTC + 1 hora [ DST ]







Responder al tema  [ 1 mensaje ] 
 El general murió al amanecer | 1936 | Dual-Esp-Ing+Subs-Esp 
Autor Mensaje
Capitán Pirata
Capitán Pirata
Avatar de Usuario

Registrado: Jue Feb 09, 2012 2:19 pm
Mensajes: 1949
Ubicación: España
Agradecido : 526 veces
Agradecimiento recibido: 451 veces
Nota El general murió al amanecer | 1936 | Dual-Esp-Ing+Subs-Esp

Imagen


El general murió al amanecer | 1936 | The General died at dawn

Imagen

DURACIÓN: 97 min.
PAÍS: Estados Unidos
DIRECTOR: Lewis Milestone
GUIÓN: Clifford Odets (Historia: Charles G. Booth)
MÚSICA: Paramount Pictures
FOTOGRAFÍA: Victor Milner (B&W)
REPARTO: Gary Cooper, Madeleine Carroll, William Frawley, Dudley Digges, Akim Tamiroff, Porter Hall
PRODUCTORA: Paramount Pictures
GÉNERO: Drama. Romance. Aventuras | Drama romántico
UPLOADER: Odinko
PREMIOS:
1936: 3 nominaciones al Oscar: Actor de reparto (Akim Tamiroff), fotografía, bso

Imagen
En los años 30, en plena guerra civil china, el aventurero O'Hara, indignado por el trato que el general Yang dispensa a sus compatriotas, envía dinero al señor Wu para que compre en Shangai armas que les permitan derrocar al tirano y establecer un régimen democrático.

Imagen
Imagen

IDIOMA: Dual Castellano / Inglés con subtítulos en español

Imagen
MEDIAINFO: (Ver Spoiler)
Ocultar:
El general murió al amanecer (1936).(Dual-Esp-Ing+Subs-Esp).XviD.AC3.by.Odinko.(CineClasicoConecta2).mkv
Format : Matroska
Format version : Version 4 / Version 2
File size : 1.21 GiB
Duration : 1h 33mn
Overall bit rate : 1 852 Kbps
Movie name : El general murió al amanecer (1936) - MKV creado por Odinko de Cine Clásico Conecta2
Encoded date : UTC 2013-07-02 00:18:44
Writing application : mkvmerge v6.3.0 ('You can't stop me!') built on Jun 27 2013 22:06:07
Writing library : libebml v1.3.0 + libmatroska v1.4.0

Video
ID : 1
Format : MPEG-4 Visual
Format profile : Advanced Simple@L5
Format settings, BVOP : Yes
Format settings, QPel : No
Format settings, GMC : No warppoints
Format settings, Matrix : Default (H.263)
Codec ID : V_MS/VFW/FOURCC / XVID
Codec ID/Hint : XviD
Duration : 1h 33mn
Bit rate : 1 431 Kbps
Width : 576 pixels
Height : 432 pixels
Display aspect ratio : 4:3
Frame rate mode : Constant
Frame rate : 25.000 fps
Color space : YUV
Chroma subsampling : 4:2:0
Bit depth : 8 bits
Scan type : Progressive
Compression mode : Lossy
Bits/(Pixel*Frame) : 0.230
Stream size : 959 MiB (77%)
Writing library : XviD 1.1.2 (UTC 2006-11-01)
Default : Yes
Forced : No

Audio #1
ID : 2
Format : AC-3
Format/Info : Audio Coding 3
Mode extension : CM (complete main)
Format settings, Endianness : Big
Codec ID : A_AC3
Duration : 1h 33mn
Bit rate mode : Constant
Bit rate : 192 Kbps
Channel(s) : 2 channels
Channel positions : Front: L R
Sampling rate : 48.0 KHz
Bit depth : 16 bits
Compression mode : Lossy
Stream size : 129 MiB (10%)
Title : Castellano
Language : Spanish
Default : Yes
Forced : No

Audio #2
ID : 3
Format : AC-3
Format/Info : Audio Coding 3
Mode extension : CM (complete main)
Format settings, Endianness : Big
Codec ID : A_AC3
Duration : 1h 33mn
Bit rate mode : Constant
Bit rate : 192 Kbps
Channel(s) : 2 channels
Channel positions : Front: L R
Sampling rate : 48.0 KHz
Bit depth : 16 bits
Compression mode : Lossy
Stream size : 129 MiB (10%)
Title : Inglés (V.O)
Language : English
Default : No
Forced : No

Text
ID : 4
Format : UTF-8
Codec ID : S_TEXT/UTF8
Codec ID/Info : UTF-8 Plain Text
Title : Español
Language : Spanish
Default : Yes
Forced : No

Menu
00:00:00.000 : en:Chapter 1
00:10:00.000 : en:Chapter 2
00:20:00.000 : en:Chapter 3
00:30:00.000 : en:Chapter 4
00:40:00.000 : en:Chapter 5
00:50:00.000 : en:Chapter 6
01:00:00.000 : en:Chapter 7
01:05:00.000 : en:Chapter 8
01:10:00.000 : en:Chapter 9
01:15:00.000 : en:Chapter 10
01:20:00.000 : en:Chapter 20
ImagenEl general murió al amanecer (1936).(Dual-Esp-Ing+Subs-Esp).(MKV).part1.rar
ImagenEl general murió al amanecer (1936).(Dual-Esp-Ing+Subs-Esp).(MKV).part2.rar






_________________

Imagen


_________________

Estos usuarios agradecierón al autor Odinko (SagitarioXP) por el mensaje (total 2):
menaxio (Sab Nov 30, 2013 5:15 am) • jddlameyer (Mié Sep 04, 2013 11:02 am)
Valoración: 33.33%
 


Lun Mar 26, 2012 7:45 pm
Perfil   WWW
Mostrar mensajes previos:  Ordenar por  
Responder al tema   [ 1 mensaje ] 

Todos los horarios son UTC + 1 hora [ DST ]


¿Quién está conectado?

Usuarios navegando por este Foro: No hay usuarios registrados visitando el Foro y 1 invitado


No puede abrir nuevos temas en este Foro
No puede responder a temas en este Foro
No puede editar sus mensajes en este Foro
No puede borrar sus mensajes en este Foro

Saltar a:  

Powered by phpBB © 2000, 2002, 2005, 2007 phpBB Group.
Designed by STSoftware for PTF.


rss sindicación xml Anadir noticias de este foro a igoogle