Buscar temas sin respuesta | Ver temas activos Fecha actual Mar Jun 25, 2019 11:28 am

Todos los horarios son UTC + 1 hora [ DST ]







Responder al tema  [ 1 mensaje ] 
 Cowboy de medianoche | 1969 | Dual-Esp-Ing+Subs-Esp 
Autor Mensaje
Capitán Pirata
Capitán Pirata
Avatar de Usuario

Registrado: Jue Feb 09, 2012 2:19 pm
Mensajes: 1949
Ubicación: España
Agradecido : 526 veces
Agradecimiento recibido: 451 veces
Nota Cowboy de medianoche | 1969 | Dual-Esp-Ing+Subs-Esp

Imagen


Cowboy de medianoche | 1969 | Midnight Cowboy

Imagen

DURACIÓN: 113 min.
PAÍS: [Estados Unidos]
DIRECTOR: John Schlesinger
GUIÓN: Waldo Salt (Novela: James Leo Herlihy)
MÚSICA: John Barry
FOTOGRAFÍA: Adam Holender
REPARTO: Dustin Hoffman, Jon Voight, Brenda Vaccaro, Sylvia Miles, John McGiver, Ruth White, Bob Balaban, Barnard Hughes
PRODUCTORA: MGM / UA
GÉNERO: Drama | Amistad. Prostitución
UPLOADER: Odinko
PREMIOS:
1969: 3 Oscars: Mejor película, director, guión adaptado. 7 nominaciones
1969: BAFTA: Mejor película
1969: Festival de Berlín: Premio OCIC
1969: Premios David di Donatello: Mejor director y actor extranjeros (Dustin Hoffman)

Imagen
Soñando con el éxito como cowboy de exhibición, el joven e ingenuo tejano Joe Buck se traslada a Nueva York, donde comienza a trabajar como gigoló seduciendo a mujeres maduras de Manhattan. Joe pronto descubre que ese mundo no es como él se imaginaba, pero antes conoce a Rico "Ratso" Rizzo, un timador que lo quiere estafar.

Imagen
Imagen

IDIOMA: Dual Castellano / Inglés con subtítulos en español

Imagen
MEDIAINFO: (Ver Spoiler)
Ocultar:
Cowboy.De.Medianoche.(1969).(Dual-Esp-Ing+Subs-Esp).XviD.MP3.DVDRip.By.Odinko.(CineClasicoConecta2).mkv
Format : Matroska
Format version : Version 4 / Version 2
File size : 1.45 GiB
Duration : 1h 48mn
Overall bit rate : 1 916 Kbps
Movie name : Cowboy de medianoche (1969) - MKV creado por Odinko de Cine Clásico Conecta2
Encoded date : UTC 2013-07-02 03:32:41
Writing application : mkvmerge v6.3.0 ('You can't stop me!') built on Jun 27 2013 22:06:07
Writing library : libebml v1.3.0 + libmatroska v1.4.0

Video
ID : 1
Format : MPEG-4 Visual
Format profile : Advanced Simple@L5
Format settings, BVOP : Yes
Format settings, QPel : No
Format settings, GMC : No warppoints
Format settings, Matrix : Default (MPEG)
Codec ID : V_MS/VFW/FOURCC / XVID
Codec ID/Hint : XviD
Duration : 1h 48mn
Bit rate : 1 622 Kbps
Width : 688 pixels
Height : 368 pixels
Display aspect ratio : 1.85:1
Frame rate mode : Constant
Frame rate : 25.000 fps
Color space : YUV
Chroma subsampling : 4:2:0
Bit depth : 8 bits
Scan type : Progressive
Compression mode : Lossy
Bits/(Pixel*Frame) : 0.256
Stream size : 1.23 GiB (85%)
Writing library : XviD 1.2.1 (UTC 2008-12-04)
Default : Yes
Forced : No

Audio #1
ID : 2
Format : MPEG Audio
Format version : Version 1
Format profile : Layer 3
Mode : Joint stereo
Mode extension : MS Stereo
Codec ID : A_MPEG/L3
Codec ID/Hint : MP3
Duration : 1h 48mn
Bit rate mode : Constant
Bit rate : 128 Kbps
Channel(s) : 2 channels
Sampling rate : 48.0 KHz
Compression mode : Lossy
Stream size : 99.2 MiB (7%)
Title : Mp3.Castellano
Language : Spanish
Default : Yes
Forced : No

Audio #2
ID : 3
Format : MPEG Audio
Format version : Version 1
Format profile : Layer 3
Mode : Joint stereo
Mode extension : MS Stereo
Codec ID : A_MPEG/L3
Codec ID/Hint : MP3
Duration : 1h 48mn
Bit rate mode : Constant
Bit rate : 128 Kbps
Channel(s) : 2 channels
Sampling rate : 48.0 KHz
Compression mode : Lossy
Stream size : 99.2 MiB (7%)
Title : Mp3.Inglés
Default : No
Forced : No

Text #1
ID : 4
Format : UTF-8
Codec ID : S_TEXT/UTF8
Codec ID/Info : UTF-8 Plain Text
Title : Español
Language : Spanish
Default : Yes
Forced : No

Text #2
ID : 5
Format : UTF-8
Codec ID : S_TEXT/UTF8
Codec ID/Info : UTF-8 Plain Text
Title : Inglés
Language : English
Default : No
Forced : No

Menu
00:00:00.000 : en:Chapter 1
00:10:00.000 : en:Chapter 2
00:20:00.000 : en:Chapter 3
00:30:00.000 : en:Chapter 4
00:40:00.000 : en:Chapter 5
00:50:00.000 : en:Chapter 6
01:00:00.000 : en:Chapter 7
01:05:00.000 : en:Chapter 8
01:10:00.000 : en:Chapter 9
01:15:00.000 : en:Chapter 10
01:20:00.000 : en:Chapter 20
ImagenCowboy.De.Medianoche.(1969).(Dual-Esp-Ing+Subs-Esp).(MKV).part1.rar
ImagenCowboy.De.Medianoche.(1969).(Dual-Esp-Ing+Subs-Esp).(MKV).part2.rar






_________________



Lun Feb 27, 2012 11:18 pm
Perfil   WWW
Mostrar mensajes previos:  Ordenar por  
Responder al tema   [ 1 mensaje ] 

Todos los horarios son UTC + 1 hora [ DST ]


¿Quién está conectado?

Usuarios navegando por este Foro: No hay usuarios registrados visitando el Foro y 1 invitado


No puede abrir nuevos temas en este Foro
No puede responder a temas en este Foro
No puede editar sus mensajes en este Foro
No puede borrar sus mensajes en este Foro

Saltar a:  

Powered by phpBB © 2000, 2002, 2005, 2007 phpBB Group.
Designed by STSoftware for PTF.


rss sindicación xml Anadir noticias de este foro a igoogle