Buscar temas sin respuesta | Ver temas activos Fecha actual Mar Jun 25, 2019 11:31 am

Todos los horarios son UTC + 1 hora [ DST ]







Responder al tema  [ 3 mensajes ] 
 Adios, Mr. Chips | 1939 | Dual-Esp-Ing+Subs-Esp 
Autor Mensaje
Capitán Pirata
Capitán Pirata
Avatar de Usuario

Registrado: Jue Feb 09, 2012 2:19 pm
Mensajes: 1949
Ubicación: España
Agradecido : 526 veces
Agradecimiento recibido: 451 veces
Nota Adios, Mr. Chips | 1939 | Dual-Esp-Ing+Subs-Esp

Imagen


Adiós, Mr. Chips | 1939 | Goodbye Mr. Chips

Imagen

DURACIÓN: 114 Min.
PAÍS: Reino Unido
DIRECTOR: Sam Wood
GUIÓN: Claudine West, Sidney Franklin, R.C. Sheriff, Eric Marschwitz (Novela: James Hilton)
MÚSICA: Richard Addinsell
FOTOGRAFÍA: Freddie Young (B&W)
REPARTO: Robert Donat, Greer Garson, John Mills, Terry Kilburn, Paul Henreid, Judith Furse, Lyn Harding, Frederick Leister, Milton Rosmer
PRODUCTORA: MGM
GÉNERO: Drama
UPLOADER: Odinko

Imagen
Mediados del siglo XIX-Primera Guerra Mundial (1914-1918). A la escuela de Brookfield llega un joven y tímido profesor que dedica toda su vida a enseñar a varias generaciones de alumnos. Adaptación de una novela de James Hilton. Fue uno de los grandes éxitos de la Metro-Goldwyn-Mayer en esa época.

Sin duda, la cosecha de 1939 fue una de las más sabrosas de la historia del cine. Dicho año se estrenaron películas como Sólo los ángeles tienen alas, Lo que el viento se llevó o La diligencia, por poner algún ejemplo, obras sobresalientes y fruto del sistema de cine de estudios, del que Adiós, Mr. Chips es una muestra representativa. Su principal impulsor fue el legendario productor Irving Thalberg, fallecido antes de estrenarse y que recibió un reconocimiento en los créditos, siendo quizá una de las escasas ocasiones en que apareció citado, pues el malogrado tycoon consideraba que "quien decide los créditos no precisa de ellos".

Adiós Mr. Chips narra la prolongada trayectoria como docente de un entrañable individuo, Arthr Chipping, que con su humanidad y vocación por la enseñanza consigue dejar huella en su vasto alumnado.

A medio camino entre el drama y la comedia, Adiós Mr. Chips es una potente producción, con una magnífica ambientación y dirección artística, que refleja óptimamente la peculiar atmósfera de esos típicos internados ingleses, cargados de tradición y tipismo.

Destacar la estupenda interpretación de un actor hoy olvidado, Robert Donat, muy popular en su tiempo, y al que la enfermedad truncó una brillante carrera.

Imagen
Imagen

IDIOMA: Dual Castellano / Inglés con subtítulos en español

Imagen
MEDIAINFO: (Ver Spoiler)
Ocultar:
Adios Mr Chips (1939).(Dual-Esp-Ing+Subs-Esp).Dvd-Rip.XviD.Mp3.by.Odinko.(CineClasicoConecta2).mkv
Format : Matroska
Format version : Version 4 / Version 2
File size : 1.52 GiB
Duration : 1h 49mn
Overall bit rate : 1 980 Kbps
Movie name : Adios Mr Chips (1939) - MKV creado por Odinko de Cine Clásico Conecta2
Encoded date : UTC 2013-07-28 21:14:51
Writing application : mkvmerge v6.3.0 ('You can't stop me!') built on Jun 27 2013 22:06:07
Writing library : libebml v1.3.0 + libmatroska v1.4.0

Video
ID : 1
Format : MPEG-4 Visual
Format profile : Advanced Simple@L5
Format settings, BVOP : Yes
Format settings, QPel : No
Format settings, GMC : No warppoints
Format settings, Matrix : Default (MPEG)
Codec ID : V_MS/VFW/FOURCC / XVID
Codec ID/Hint : XviD
Duration : 1h 49mn
Bit rate : 1 684 Kbps
Width : 592 pixels
Height : 432 pixels
Display aspect ratio : 1.370
Frame rate mode : Constant
Frame rate : 25.000 fps
Color space : YUV
Chroma subsampling : 4:2:0
Bit depth : 8 bits
Scan type : Progressive
Compression mode : Lossy
Bits/(Pixel*Frame) : 0.263
Stream size : 1.29 GiB (85%)
Writing library : XviD 1.1.2 (UTC 2006-11-01)
Default : Yes
Forced : No

Audio #1
ID : 2
Format : MPEG Audio
Format version : Version 1
Format profile : Layer 3
Mode : Joint stereo
Mode extension : MS Stereo
Codec ID : A_MPEG/L3
Codec ID/Hint : MP3
Duration : 1h 49mn
Bit rate mode : Constant
Bit rate : 128 Kbps
Channel(s) : 2 channels
Sampling rate : 48.0 KHz
Compression mode : Lossy
Stream size : 100 MiB (6%)
Title : Castellano (mp3)
Writing library : LAME3.90.3
Default : Yes
Forced : No

Audio #2
ID : 3
Format : MPEG Audio
Format version : Version 1
Format profile : Layer 3
Mode : Joint stereo
Mode extension : MS Stereo
Codec ID : A_MPEG/L3
Codec ID/Hint : MP3
Duration : 1h 49mn
Bit rate mode : Constant
Bit rate : 128 Kbps
Channel(s) : 2 channels
Sampling rate : 48.0 KHz
Compression mode : Lossy
Stream size : 100 MiB (6%)
Title : Inglés (mp3)
Writing library : LAME3.90.3
Language : English
Default : No
Forced : No

Text
ID : 4
Format : UTF-8
Codec ID : S_TEXT/UTF8
Codec ID/Info : UTF-8 Plain Text
Title : Español
Language : Spanish
Default : Yes
Forced : No

Menu
00:00:00.000 : en:Chapter 1
00:10:00.000 : en:Chapter 2
00:20:00.000 : en:Chapter 3
00:30:00.000 : en:Chapter 4
00:40:00.000 : en:Chapter 5
00:50:00.000 : en:Chapter 6
01:00:00.000 : en:Chapter 7
01:05:00.000 : en:Chapter 8
01:10:00.000 : en:Chapter 9
01:15:00.000 : en:Chapter 10
01:20:00.000 : en:Chapter 20
ImagenAdios Mr Chips (1939).(Dual-Esp-Ing+Subs-Esp).(MKV).part2.rar
ImagenAdios Mr Chips (1939).(Dual-Esp-Ing+Subs-Esp).(MKV).part1.rar






_________________

Imagen


_________________

Estos usuarios agradecierón al autor Odinko (SagitarioXP) por el mensaje:
Anselmo (Dom Ago 04, 2013 12:32 pm)
Valoración: 16.67%
 


Dom Ago 26, 2012 9:27 pm
Perfil   WWW
Polizón
Polizón

Registrado: Dom Abr 01, 2012 12:36 pm
Mensajes: 24
Agradecido : 2 veces
Agradecimiento recibido: 7 veces
Nota Re: Adios, Mr. Chips | 1939 | Dual-Esp-Ing+Subs-Esp
Mi estimado amigo Odinko, permíteme felicitarte por ésta maravillosa película llamada "Adiós, Mr. Chips". Como bien reza la crítica, "la cosecha de 1939 fue excepcional". No puedo estar más de acuerdo en lo que a ésta entrañable película se refiere. Hace tiempo que la conseguí de otra web y no me he arrepentido nunca de ello. Se la recomiendo encarecidamente a cualquiera que quiera pasar un gran rato de cine del bueno.

Gracias.


P.D.: ¿Puedo permitirme recomendarte una película llamada "La versión Browning"? Hay dos. Yo me refiero a la primera versión de 1951, a la que encuentro ligeras reminiscencias de "Mr. Chips". Michael Redgrave se sale. Si no la conoces, cosa que dudo viendo lo que subes al foro, te aseguro que te gustará. Te adjunto la reseña de FilmAffinity:

http://www.filmaffinity.com/es/film670646.html

_________________

Estos usuarios agradecierón al autor Anselmo por el mensaje:
Odinko (SagitarioXP) (Dom Ago 04, 2013 10:36 pm)
Valoración: 16.67%
 


Dom Ago 04, 2013 12:38 pm
Perfil  
Capitán Pirata
Capitán Pirata
Avatar de Usuario

Registrado: Jue Feb 09, 2012 2:19 pm
Mensajes: 1949
Ubicación: España
Agradecido : 526 veces
Agradecimiento recibido: 451 veces
Nota Re: Adios, Mr. Chips | 1939 | Dual-Esp-Ing+Subs-Esp
Hola Anselmo.
Muchísimas gracias por tan enriquecido comentario. :sombrero:

No conocía la película que sugieres, pero ya la estoy localizando para verla y compartirla aquí en el foro.

Un abrazo !

_________________

Imagen


Dom Ago 04, 2013 10:35 pm
Perfil   WWW
Mostrar mensajes previos:  Ordenar por  
Responder al tema   [ 3 mensajes ] 

Todos los horarios son UTC + 1 hora [ DST ]


¿Quién está conectado?

Usuarios navegando por este Foro: No hay usuarios registrados visitando el Foro y 1 invitado


No puede abrir nuevos temas en este Foro
No puede responder a temas en este Foro
No puede editar sus mensajes en este Foro
No puede borrar sus mensajes en este Foro

Saltar a:  

Powered by phpBB © 2000, 2002, 2005, 2007 phpBB Group.
Designed by STSoftware for PTF.


rss sindicación xml Anadir noticias de este foro a igoogle