Buscar temas sin respuesta | Ver temas activos Fecha actual Mar Jun 25, 2019 11:27 am

Todos los horarios son UTC + 1 hora [ DST ]



Responder al tema  [ 1 mensaje ] 
 Once upon a Texas train | 1988 | Dual-Esp-Ing+Subs-Esp 
Autor Mensaje
Capitán Pirata
Capitán Pirata
Avatar de Usuario

Registrado: Jue Feb 09, 2012 2:19 pm
Mensajes: 1949
Ubicación: España
Agradecido : 526 veces
Agradecimiento recibido: 451 veces
Nota Once upon a Texas train | 1988 | Dual-Esp-Ing+Subs-Esp
Imagen


Tren de texas | 1988 | Once upon a Texas train

Imagen

DURACIÓN: 90 min.
PAÍS: -
DIRECTOR: Burt Kennedy.
GUIÓN: Burt Kennedy.
MÚSICA: -
FOTOGRAFÍA: -
REPARTO: Willie Nelson, Richard Widmark, Angie Dickinson.
PRODUCTORA: mmmmm
GÉNERO: Western
UPLOADER: Odinko

Imagen
John Henry Lee sale de la cárcel después de varios años y vuelve a reunirse con su antigua banda para realizar el atraco que siempre quiso, el tren de Texas. El Captain Owen Hayes reune a sus antiguos colaboradores para dar caza a John Henry Lee.

Imagen
Imagen

IDIOMA: Dual Castellano / Inglés con subtítulos en español

Imagen
MEDIAINFO: (Ver Spoiler)
Ocultar:
Texas tren (1988).(Dual-Esp-Ing+Subs-Esp).DVDRip.XviD.Mp3.by.Odinko.(CineClasicoConecta2).mkv
Format : Matroska
Format version : Version 2
File size : 776 MiB
Duration : 1h 30mn
Overall bit rate : 1 197 Kbps
Movie name : Texas tren (1988) - MKV creado por Odinko de Cine Clásico Conecta2
Encoded date : UTC 2013-06-25 02:15:37
Writing application : mkvmerge v5.8.0 ('No Sleep / Pillow') built on Sep 2 2012 15:37:04
Writing library : libebml v1.2.3 + libmatroska v1.3.0

Video
ID : 1
Format : MPEG-4 Visual
Format profile : Advanced Simple@L5
Format settings, BVOP : Yes
Format settings, QPel : No
Format settings, GMC : No warppoints
Format settings, Matrix : Default (H.263)
Codec ID : V_MS/VFW/FOURCC / XVID
Codec ID/Hint : XviD
Duration : 1h 30mn
Bit rate : 918 Kbps
Width : 544 pixels
Height : 400 pixels
Display aspect ratio : 4:3
Frame rate mode : Constant
Frame rate : 23.976 fps
Color space : YUV
Chroma subsampling : 4:2:0
Bit depth : 8 bits
Scan type : Progressive
Compression mode : Lossy
Bits/(Pixel*Frame) : 0.176
Stream size : 595 MiB (77%)
Writing library : XviD 1.1.0 (UTC 2005-11-22)
Default : Yes
Forced : No

Audio #1
ID : 2
Format : MPEG Audio
Format version : Version 1
Format profile : Layer 3
Mode : Joint stereo
Mode extension : MS Stereo
Muxing mode : Header stripping
Codec ID : A_MPEG/L3
Codec ID/Hint : MP3
Duration : 1h 30mn
Bit rate mode : Constant
Bit rate : 128 Kbps
Channel(s) : 2 channels
Sampling rate : 48.0 KHz
Compression mode : Lossy
Stream size : 83.0 MiB (11%)
Title : MP3.Castellano
Language : Spanish
Default : Yes
Forced : No

Audio #2
ID : 3
Format : MPEG Audio
Format version : Version 1
Format profile : Layer 3
Mode : Joint stereo
Mode extension : MS Stereo
Muxing mode : Header stripping
Codec ID : A_MPEG/L3
Codec ID/Hint : MP3
Duration : 1h 30mn
Bit rate mode : Constant
Bit rate : 128 Kbps
Channel(s) : 2 channels
Sampling rate : 48.0 KHz
Compression mode : Lossy
Stream size : 83.0 MiB (11%)
Title : MP3.Inglés (V.O.)
Writing library : LAME3.97b
Encoding settings : -m j -V 4 -q 2 -lowpass 17 -b 128
Language : English
Default : No
Forced : No

Text
ID : 4
Format : UTF-8
Codec ID : S_TEXT/UTF8
Codec ID/Info : UTF-8 Plain Text
Title : Español
Language : Spanish
Default : Yes
Forced : No

Menu
00:00:00.000 : en:Chapter 1
00:10:00.000 : en:Chapter 2
00:20:00.000 : en:Chapter 3
00:30:00.000 : en:Chapter 4
00:40:00.000 : en:Chapter 5
00:50:00.000 : en:Chapter 6
01:00:00.000 : en:Chapter 7
01:05:00.000 : en:Chapter 8
01:10:00.000 : en:Chapter 9
01:15:00.000 : en:Chapter 10
01:20:00.000 : en:Chapter 20
ImagenTexas tren (1988).(Dual-Esp-Ing+Subs-Esp).(MKV).rar






_________________

Imagen

_________________

Estos usuarios agradecierón al autor Odinko (SagitarioXP) por el mensaje:
FELIPEPENIL (Lun Nov 18, 2013 6:35 pm)
Valoración: 16.67%
 


Mar Jun 25, 2013 11:22 pm
Perfil   WWW
Mostrar mensajes previos:  Ordenar por  
Responder al tema   [ 1 mensaje ] 

Todos los horarios son UTC + 1 hora [ DST ]


¿Quién está conectado?

Usuarios navegando por este Foro: No hay usuarios registrados visitando el Foro y 1 invitado


No puede abrir nuevos temas en este Foro
No puede responder a temas en este Foro
No puede editar sus mensajes en este Foro
No puede borrar sus mensajes en este Foro

Saltar a:  
Powered by phpBB © 2000, 2002, 2005, 2007 phpBB Group.
Designed by STSoftware for PTF.


rss sindicación xml Anadir noticias de este foro a igoogle