Buscar temas sin respuesta | Ver temas activos Fecha actual Mar Jun 25, 2019 11:49 am

Todos los horarios son UTC + 1 hora [ DST ]







Responder al tema  [ 1 mensaje ] 
 California | 1946 | Dual-Esp-Ing+Subs-Esp-Ing-Por 
Autor Mensaje
Capitán Pirata
Capitán Pirata
Avatar de Usuario

Registrado: Jue Feb 09, 2012 2:19 pm
Mensajes: 1949
Ubicación: España
Agradecido : 526 veces
Agradecimiento recibido: 451 veces
Nota California | 1946 | Dual-Esp-Ing+Subs-Esp-Ing-Por

Imagen


California | 1946

Imagen

DURACIÓN: 97 min.
PAÍS: Estados Unidos
DIRECTOR: John Farrow
GUIÓN: Frank Butler, Theodor Strauss (Historia: Boris Ingster)
MÚSICA: Victor Young (Canciones: Robinson-Harburg)
FOTOGRAFÍA: Ray Rennahan
REPARTO: Barbara Stanwyck, Ray Milland, Barry Fitzgerald, Anthony Quinn, George Couloris, Albert Dekker
PRODUCTORA: Paramount Pictures
GÉNERO: Western
UPLOADER: Odinko

Imagen
Trumbo (Milland), un desertor del ejército, es el guía de un grupo de colonos, entre los que están Lily (Stanwyck) y Michael Fabian (Fitzgerald), que se dirigen a California, empujados por el afan de aventuras y por la fiebre del oro. Cuando llegan, se encuentran con una ciudad dominada por la anarquía, donde el malvado capitán Coffin (Couloris) impone su ley despóticamente. Trumbo se encargará de desbaratar los intentos de Coffin de provocar una sublevación en California... (FILMAFFINITY)

Imagen
Imagen

IDIOMA: Dual Castellano / Inglés con subtítulos en español, inglés y portugués

Imagen
MEDIAINFO: (Ver Spoiler)
Ocultar:
California.(1946).(Dual-Esp-Ing+Subs-Esp-Ing-Por).DVD-Rip.XviD-mp3.by.Odinko.(CineClasicoConecta2).mkv
Format : Matroska
Format version : Version 4 / Version 2
File size : 886 MiB
Duration : 1h 37mn
Overall bit rate : 1 265 Kbps
Movie name : California (1946) - MKV creado por Odinko de Cine Clásico Conecta2
Encoded date : UTC 2013-07-28 02:07:47
Writing application : mkvmerge v6.3.0 ('You can't stop me!') built on Jun 27 2013 22:06:07
Writing library : libebml v1.3.0 + libmatroska v1.4.0

Video
ID : 4
Format : MPEG-4 Visual
Format profile : Advanced Simple@L5
Format settings, BVOP : Yes
Format settings, QPel : No
Format settings, GMC : No warppoints
Format settings, Matrix : Custom
Codec ID : V_MS/VFW/FOURCC / XVID
Codec ID/Hint : XviD
Duration : 1h 37mn
Bit rate : 1 016 Kbps
Width : 576 pixels
Height : 432 pixels
Display aspect ratio : 4:3
Frame rate mode : Constant
Frame rate : 23.976 fps
Color space : YUV
Chroma subsampling : 4:2:0
Bit depth : 8 bits
Scan type : Progressive
Compression mode : Lossy
Bits/(Pixel*Frame) : 0.170
Stream size : 711 MiB (80%)
Writing library : XviD 1.1.2 (UTC 2006-11-01)
Default : Yes
Forced : No

Audio #1
ID : 5
Format : MPEG Audio
Format version : Version 1
Format profile : Layer 3
Mode : Joint stereo
Mode extension : MS Stereo
Codec ID : A_MPEG/L3
Codec ID/Hint : MP3
Duration : 1h 37mn
Bit rate mode : Constant
Bit rate : 128 Kbps
Channel(s) : 2 channels
Sampling rate : 48.0 KHz
Compression mode : Lossy
Stream size : 89.6 MiB (10%)
Title : Castellano
Language : Spanish
Default : Yes
Forced : No

Audio #2
ID : 6
Format : MPEG Audio
Format version : Version 1
Format profile : Layer 3
Mode : Joint stereo
Mode extension : MS Stereo
Codec ID : A_MPEG/L3
Codec ID/Hint : MP3
Duration : 1h 37mn
Bit rate mode : Constant
Bit rate : 96.0 Kbps
Channel(s) : 2 channels
Sampling rate : 32.0 KHz
Compression mode : Lossy
Stream size : 67.2 MiB (8%)
Title : Inglés
Writing library : LAME3.97
Encoding settings : -m j -V 4 -q 2 -lowpass 15.1 -b 96
Default : No
Forced : No

Text #1
ID : 1
Format : UTF-8
Codec ID : S_TEXT/UTF8
Codec ID/Info : UTF-8 Plain Text
Title : Español
Language : Spanish
Default : Yes
Forced : No

Text #2
ID : 2
Format : UTF-8
Codec ID : S_TEXT/UTF8
Codec ID/Info : UTF-8 Plain Text
Language : English
Default : No
Forced : No

Text #3
ID : 3
Format : UTF-8
Codec ID : S_TEXT/UTF8
Codec ID/Info : UTF-8 Plain Text
Language : Portuguese
Default : No
Forced : No

Menu
00:00:00.000 : en:Chapter 1
00:10:00.000 : en:Chapter 2
00:20:00.000 : en:Chapter 3
00:30:00.000 : en:Chapter 4
00:40:00.000 : en:Chapter 5
00:50:00.000 : en:Chapter 6
01:00:00.000 : en:Chapter 7
01:05:00.000 : en:Chapter 8
01:10:00.000 : en:Chapter 9
01:15:00.000 : en:Chapter 10
01:20:00.000 : en:Chapter 20
ImagenCalifornia.(1946).(Dual-Esp-Ing+Subs-Esp-Ing-Por).(MKV).rar






_________________

Imagen


_________________

Estos usuarios agradecierón al autor Odinko (SagitarioXP) por el mensaje:
ciscobabe (Vie Ago 02, 2013 8:28 pm)
Valoración: 16.67%
 


Mar Jul 30, 2013 4:31 pm
Perfil   WWW
Mostrar mensajes previos:  Ordenar por  
Responder al tema   [ 1 mensaje ] 

Todos los horarios son UTC + 1 hora [ DST ]


¿Quién está conectado?

Usuarios navegando por este Foro: No hay usuarios registrados visitando el Foro y 1 invitado


No puede abrir nuevos temas en este Foro
No puede responder a temas en este Foro
No puede editar sus mensajes en este Foro
No puede borrar sus mensajes en este Foro

Saltar a:  

Powered by phpBB © 2000, 2002, 2005, 2007 phpBB Group.
Designed by STSoftware for PTF.


rss sindicación xml Anadir noticias de este foro a igoogle