Buscar temas sin respuesta | Ver temas activos Fecha actual Mar Jun 25, 2019 12:13 pm

Todos los horarios son UTC + 1 hora [ DST ]







Responder al tema  [ 2 mensajes ] 
 Buffalo Bill en territorio tomahawk | 1952 | Castellano 
Autor Mensaje
Capitán Pirata
Capitán Pirata
Avatar de Usuario

Registrado: Jue Feb 09, 2012 2:19 pm
Mensajes: 1949
Ubicación: España
Agradecido : 526 veces
Agradecimiento recibido: 451 veces
Nota Buffalo Bill en territorio tomahawk | 1952 | Castellano
Imagen


Buffalo Bill en territorio tomahawk | 1952 | Buffalo Bill in Tomahawk Territory

Imagen

DURACIÓN: 66 min.
PAÍS: USA
DIRECTOR: Bernard B. Ray
GUIÓN: Sam Neuman, Nat Tanchuck
MÚSICA: -
FOTOGRAFÍA: Elmer Dyer (B&W)
REPARTO: Clayton Moore, Slim Andrews, Charles Harvey, Rodd Redwing, Shooting Star, Chief Yowlachie, Chief Thundercloud, Charlie Hughes, Eddie Phillips, Tom Hubbard, Sharon Dexter
PRODUCTORA: Jack Schwarz Productions / United Artist
GÉNERO: Western
UPLOADER: Odinko

Imagen
Búfalo Bill y su ayudante Cactus corren en ayuda de una caravana de pioneras que están siendo hostigadas por los indios y descubren que las mujeres son soldados del ejército que intentan descubrir a unos indios que no cumplen las condiciones de un tratado de paz. Sin embargo aún hay más sorpresas pues, tras el disfraz de guerreros sioux, se ocultan los secuaces de Blake, un hombre sin escrúpulos que desea romper el acuerdo para poder apoderarse de los yacimientos de oro descubiertos en la tierra del jefe Nube Blanca. Búfalo Bill intentará resolver el entuerto.

Imagen
Imagen

IDIOMA: Castellano

Imagen
MEDIAINFO: (Ver Spoiler)
Ocultar:
Buffalo Bill En Territorio Tomahawk (1.952)(Castellano).Mp3.XviD.by.Odinko.(CineClásicoConecta2).avi
Format : AVI
Format/Info : Audio Video Interleave
File size : 770 MiB
Duration : 1h 5mn
Overall bit rate : 1 641 Kbps
Movie name : 3EN1_36.Title1.DVDRip
Writing application : Lavf52.17.0
Original source form/Name : 3EN1_36

Video
ID : 0
Format : MPEG-4 Visual
Format profile : Simple@L3
Format settings, BVOP : No
Format settings, QPel : No
Format settings, GMC : No warppoints
Format settings, Matrix : Default (H.263)
Codec ID : DX50
Codec ID/Hint : DivX 5
Duration : 1h 5mn
Bit rate : 1 502 Kbps
Width : 704 pixels
Height : 530 pixels
Display aspect ratio : 4:3
Frame rate : 25.000 fps
Color space : YUV
Chroma subsampling : 4:2:0
Bit depth : 8 bits
Scan type : Progressive
Compression mode : Lossy
Bits/(Pixel*Frame) : 0.161
Stream size : 705 MiB (92%)
Writing library : XviD 1.1.2 (UTC 2006-11-01)

Audio
ID : 1
Format : AC-3
Format/Info : Audio Coding 3
Mode extension : CM (complete main)
Format settings, Endianness : Big
Codec ID : 2000
Duration : 1h 5mn
Bit rate mode : Constant
Bit rate : 128 Kbps
Channel(s) : 2 channels
Channel positions : Front: L R
Sampling rate : 48.0 KHz
Bit depth : 16 bits
Compression mode : Lossy
Stream size : 60.1 MiB (8%)
Alignment : Aligned on interleaves
Interleave, duration : 32 ms (0.80 video frame)
Interleave, preload duration : 32 ms
Buffalo Bill En Territorio Tomahawk (1.952)(Castellano).rar






_________________



Mar Ene 01, 2013 9:43 am
Perfil   WWW
Grumete
Grumete

Registrado: Mar Sep 25, 2012 1:58 pm
Mensajes: 86
Agradecido : 0 vez
Agradecimiento recibido: 1 vez
Nota 
gracias por el aporte


Mar Ene 15, 2013 6:51 pm
Perfil  
Mostrar mensajes previos:  Ordenar por  
Responder al tema   [ 2 mensajes ] 

Todos los horarios son UTC + 1 hora [ DST ]


¿Quién está conectado?

Usuarios navegando por este Foro: No hay usuarios registrados visitando el Foro y 1 invitado


No puede abrir nuevos temas en este Foro
No puede responder a temas en este Foro
No puede editar sus mensajes en este Foro
No puede borrar sus mensajes en este Foro

Saltar a:  

Powered by phpBB © 2000, 2002, 2005, 2007 phpBB Group.
Designed by STSoftware for PTF.


rss sindicación xml Anadir noticias de este foro a igoogle