Buscar temas sin respuesta | Ver temas activos Fecha actual Mar Jun 25, 2019 11:53 am

Todos los horarios son UTC + 1 hora [ DST ]







Responder al tema  [ 2 mensajes ] 
 Crimen perfecto ( 1954 ) Castellano y V.O.S.E. 
Autor Mensaje
Capitán Pirata
Capitán Pirata
Avatar de Usuario

Registrado: Jue Feb 09, 2012 2:19 pm
Mensajes: 1949
Ubicación: España
Agradecido : 526 veces
Agradecimiento recibido: 451 veces
Nota Crimen perfecto ( 1954 ) Castellano y V.O.S.E.

Imagen


Crimen perfecto | 1954 | Dial M for a Murder

Imagen
DURACIÓN:105 min.
PAÍS:Estados Unidos
DIRECTOR:Alfred Hitchcock
GUIÓN:Frederick Knott
MÚSICA:Dimitri Tiomkin
FOTOGRAFÍA:Robert Burks
REPARTO:Grace Kelly,Ray Milland,Robert Cummings,John Williams,Anthony Dawson,Leo Britt,Patrick Allen,George Leigh
PRODUCTORA:Warner Bros
GÉNERO:Intriga,Crimen
UPLOADER:: Odinko

Imagen
Tony Wendice (Ray Milland), un frío y calculador tenista profesional, quiere asesinar a su bella esposa Margot (Grace Kelly), que sospecha que le es infiel, aunque lo que más le interesa es quedarse con su dinero. Para llevar a cabo su plan, chantajea a un antiguo camarada del ejército para que entre en la casa en su ausencia y estrangule a Margot cuando ésta reciba una llamada telefónica..

Imagen
Imagen
Más imágenes en el interior del spoiler:
Ocultar:

ImagenImagenImagenImagenImagenImagenImagen


IDIOMA: Castellano, V.O.S.E. y Dual Español / Inglés con subtítulos en español e inlgés

Imagen

Descargar en Castellano de Uploaded Parte 1
Descargar en Castellano de Uploaded Parte 2


Descargar en V.O.S.E. de Uploaded



Dual Español / Inglés con subtítulos en español e inlgés
MEDIAINFO:
Ocultar:
Crimen.perfecto.(1954).(Dual-Esp-Ing+Subs-Esp-Ing).BDrip.HD.1080p.AVC-AC3.by.Odinko.(CineClasicoConecta2).mkv
Format : Matroska
Format version : Version 4 / Version 2
File size : 4.31 GiB
Duration : 1h 45mn
Overall bit rate : 5 851 Kbps
Movie name : Crimen perfecto ( 1954 ) - MKV creado por Odinko de Cine Clásico Conecta2
Encoded date : UTC 2013-08-06 13:28:00
Writing application : mkvmerge v6.3.0 ('You can't stop me!') built on Jun 28 2013 20:09:41
Writing library : libebml v1.3.0 + libmatroska v1.4.0

Video
ID : 1
Format : AVC
Format/Info : Advanced Video Codec
Format profile : High@L4.1
Format settings, CABAC : Yes
Format settings, ReFrames : 4 frames
Codec ID : V_MPEG4/ISO/AVC
Duration : 1h 45mn
Bit rate : 5 465 Kbps
Width : 1 920 pixels
Height : 1 080 pixels
Display aspect ratio : 16:9
Frame rate mode : Constant
Frame rate : 23.976 fps
Color space : YUV
Chroma subsampling : 4:2:0
Bit depth : 8 bits
Scan type : Progressive
Bits/(Pixel*Frame) : 0.110
Stream size : 3.94 GiB (91%)
Title : Crimen perfecto (1954) - CineClásicoConecta2)
Writing library : x264 core 129 r2245 bc13772
Encoding settings : cabac=1 / ref=4 / deblock=1:-1:-1 / analyse=0x3:0x133 / me=umh / subme=10 / psy=1 / psy_rd=1.00:0.15 / mixed_ref=1 / me_range=24 / chroma_me=1 / trellis=2 / 8x8dct=1 / cqm=0 / deadzone=21,11 / fast_pskip=1 / chroma_qp_offset=-3 / threads=12 / lookahead_threads=2 / sliced_threads=0 / nr=0 / decimate=1 / interlaced=0 / bluray_compat=0 / constrained_intra=0 / bframes=8 / b_pyramid=2 / b_adapt=2 / b_bias=0 / direct=3 / weightb=1 / open_gop=0 / weightp=2 / keyint=240 / keyint_min=23 / scenecut=40 / intra_refresh=0 / rc_lookahead=60 / rc=2pass / mbtree=1 / bitrate=5465 / ratetol=1.0 / qcomp=0.60 / qpmin=10 / qpmax=51 / qpstep=4 / cplxblur=20.0 / qblur=0.5 / vbv_maxrate=50000 / vbv_bufsize=50000 / nal_hrd=none / ip_ratio=1.40 / aq=1:1.00
Language : English
Default : Yes
Forced : No

Audio #1
ID : 2
Format : AC-3
Format/Info : Audio Coding 3
Mode extension : CM (complete main)
Format settings, Endianness : Big
Codec ID : A_AC3
Duration : 1h 45mn
Bit rate mode : Constant
Bit rate : 192 Kbps
Channel(s) : 2 channels
Channel positions : Front: L R
Sampling rate : 48.0 KHz
Bit depth : 16 bits
Compression mode : Lossy
Stream size : 145 MiB (3%)
Title : Castellano AC3
Language : Spanish
Default : Yes
Forced : No

Audio #2
ID : 3
Format : AC-3
Format/Info : Audio Coding 3
Mode extension : CM (complete main)
Format settings, Endianness : Big
Codec ID : A_AC3
Duration : 1h 45mn
Bit rate mode : Constant
Bit rate : 192 Kbps
Channel(s) : 2 channels
Channel positions : Front: L R
Sampling rate : 48.0 KHz
Bit depth : 16 bits
Compression mode : Lossy
Stream size : 145 MiB (3%)
Title : Inglés AC3
Language : English
Default : No
Forced : No

Text #1
ID : 4
Format : UTF-8
Codec ID : S_TEXT/UTF8
Codec ID/Info : UTF-8 Plain Text
Title : Español
Language : Spanish
Default : Yes
Forced : No

Text #2
ID : 5
Format : UTF-8
Codec ID : S_TEXT/UTF8
Codec ID/Info : UTF-8 Plain Text
Title : Inglés
Language : English
Default : No
Forced : No

Menu
00:00:00.000 : en:00:00:00.000
00:08:52.000 : en:00:08:52.000
00:13:55.042 : en:00:13:55.042
00:20:32.792 : en:00:20:32.792
00:29:56.375 : en:00:29:56.375
00:38:45.458 : en:00:38:45.458
00:47:41.625 : en:00:47:41.625
00:57:57.875 : en:00:57:57.875
01:07:23.292 : en:01:07:23.292
01:13:41.625 : en:01:13:41.625
01:25:01.417 : en:01:25:01.417
01:32:43.333 : en:01:32:43.333


Crimen.perfecto.(1954).(Dual-Esp-Ing+Subs-Esp-Ing).HD.(MKV).part1.rar
Crimen.perfecto.(1954).(Dual-Esp-Ing+Subs-Esp-Ing).HD.(MKV).part2.rar
Crimen.perfecto.(1954).(Dual-Esp-Ing+Subs-Esp-Ing).HD.(MKV).part3.rar
Crimen.perfecto.(1954).(Dual-Esp-Ing+Subs-Esp-Ing).HD.(MKV).part4.rar
Crimen.perfecto.(1954).(Dual-Esp-Ing+Subs-Esp-Ing).HD.(MKV).part5.rar
Crimen.perfecto.(1954).(Dual-Esp-Ing+Subs-Esp-Ing).HD.(MKV).part6.rar



_________________

Imagen


_________________

Estos usuarios agradecierón al autor Odinko (SagitarioXP) por el mensaje (total 2):
anamariagroa (Mié Nov 27, 2013 3:13 pm) • amarguel (Jue Ago 29, 2013 2:27 pm)
Valoración: 33.33%
 


Sab Abr 21, 2012 8:14 pm
Perfil   WWW
Bucaner@
Bucaner@
Avatar de Usuario

Registrado: Dom Sep 16, 2012 11:40 am
Mensajes: 884
Agradecido : 82 veces
Agradecimiento recibido: 257 veces
Nota Re: Crimen perfecto ( 1954 ) Castellano


Imagen



Imagen

Título original
Dial M for Murder
Año
1954
Duración
105 min.
País
Estados Unidos
Director
Alfred Hitchcock
Guión
Frederick Knott
Música
Dimitri Tiomkin
Fotografía
Robert Burks
Reparto
Grace Kelly, Ray Milland, Robert Cummings, John Williams, Anthony Dawson, Leo Britt, Patrick Allen, George Leigh
Productora
Warner Bros
Género
Intriga | Crimen. 3-D. Película de culto

Sinopsis
Tony Wendice (Ray Milland), un frío y calculador ex tenista profesional, quiere asesinar a su bella y rica esposa Margot (Grace Kelly), porque sospecha que le es infiel, aunque lo que más le interesa es quedarse con su fortuna. Para llevar a cabo su plan, chantajea a un antiguo camarada del ejército para que entre en la casa en su ausencia y estrangule a Margot. (FILMAFFINITY)

Premios
1954: Círculo de críticos de Nueva York: Mejor actriz (Grace Kelly)
1954: BAFTA: Nominada a mejor actriz extranjera (Grace Kelly)

Críticas

Otra obra mayor de Hitchcock, todo un prodigio de calculado guión y preciso manejo del tempo narrativo. Del mismo modo y con los resortes parecidos a los de "La ventana indiscreta", el maestro inglés consigue, con apenas una habitación como escenario y unos pocos personajes, un film que desborda por su estilo y talento, además de conseguir intrigarnos hasta límites que sólo él supo hacernos llegar.
Pablo Kurt: FILMAFFINITY crítica positiva

La película fue rodada en 1954 utilizando la cámara de "visión natural" de M.L. Gunzberg, poseedora de la misma tecnología que otros films que iniciaron el boom por el 3-D en 1953, como "Los crímenes del museo de la cera" (House of Wax, André De Toth). Inicialmente se planteó estrenarla en 3D y 2D, pero finalmente se optó por estrenarla sólo en este último formato debido a la pérdida de popularidad del 3-D en el momento de su lanzamiento. En 1980, sin embargo, el sistema 3D fue resucitado en el Teatro York de San Francisco, lo que permitió a la Warner Bros. reestrenar la versión 3D de la película en Febrero de 1982.



Imagen

Imagen



Imagen
Ocultar:

General
Nombre completo : E:\criper_by_jomelica.avi
Formato : AVI
Formato/Info : Audio Video Interleave
Tamaño del archivo : 682MB
Duración : 1h 39min.
Tasa de bits total : 958Kbps
Librería de codificación : VirtualDub build 15654/release

Video
ID : 0
Formato : MPEG-4 Visual
Ajustes del formato, BVOP : Si
Ajustes del formato, Qpel : No
Ajustes del formato, GMC : No warppoints
Ajustes del formato, Matrix : Default (H.263)
ID Códec : DIVX
ID Códec/Info : Project Mayo
ID Códec/Pista : DivX 4
Duración : 1h 39min.
Tasa de bits : 850Kbps
Ancho : 416pixeles
Alto : 304pixeles
Relación de aspecto : 4:3
Velocidad de cuadro : 31,256fps
ColorSpace : YUV
ChromaSubsampling : 4:2:0
BitDepth/String : 8bits
Tipo de exploración : Progresivo
Bits/(Pixel*cuadro) : 0.215
Tamaño de pista : 605MB (89%)

Audio
ID : 1
Formato : MPEG Audio
Formato de la versión : Version 1
Formato del perfil : Layer 3
Format_Settings_Mode : Joint stereo
Format_Settings_ModeExtension : Intensity Stereo + MS Stereo
ID Códec : 55
ID Códec/Pista : MP3
Duración : 1h 39min.
Tipo de tasa de bits : Constante
Tasa de bits : 96,0Kbps
Canal(es) : 2canales
Velocidad de muestreo : 44,1KHz
Tamaño de pista : 68,3MB (10%)
Alineación : Dividir a través entrelazado
Entrelazado, duración : 32 ms (1,00fotograma de video)
Entrelazado, duración de precarga : 500 ms



Imagen

Imagen

http://mega.co.nz/#N!loAnkQBC!NXZL2VtQy ... evvbJ53Lqc


Imagen

_________________
Imagen


Jue Mar 27, 2014 3:33 pm
Perfil  
Mostrar mensajes previos:  Ordenar por  
Responder al tema   [ 2 mensajes ] 

Todos los horarios son UTC + 1 hora [ DST ]


¿Quién está conectado?

Usuarios navegando por este Foro: No hay usuarios registrados visitando el Foro y 1 invitado


No puede abrir nuevos temas en este Foro
No puede responder a temas en este Foro
No puede editar sus mensajes en este Foro
No puede borrar sus mensajes en este Foro

Saltar a:  

Powered by phpBB © 2000, 2002, 2005, 2007 phpBB Group.
Designed by STSoftware for PTF.


rss sindicación xml Anadir noticias de este foro a igoogle