Buscar temas sin respuesta | Ver temas activos Fecha actual Mar Jun 25, 2019 11:27 am

Todos los horarios son UTC + 1 hora [ DST ]







Responder al tema  [ 3 mensajes ] 
 Zafarrancho en el casino | 1961 | Dual-Esp-Ing+Subs-Esp 
Autor Mensaje
Capitán Pirata
Capitán Pirata
Avatar de Usuario

Registrado: Jue Feb 09, 2012 2:19 pm
Mensajes: 1949
Ubicación: España
Agradecido : 526 veces
Agradecimiento recibido: 451 veces
Nota Zafarrancho en el casino | 1961 | Dual-Esp-Ing+Subs-Esp

Imagen


Zafarrancho en el casino | 1961 | The Honeymoon Machine

Imagen

DURACIÓN: 91 min.
PAÍS: Estados Unidos
DIRECTOR: Richard Thorpe
GUIÓN: Lorenzo Semple Jr., George Wells
MÚSICA: Leigh Harline
FOTOGRAFÍA: Joseph LaShelle
REPARTO: Steve McQueen, Brigid Bazlen, Jim Hutton, Paula Prentiss, Dean Jagger, Jack Weston, Jack Mullaney, Marcel Hillaire, Ben Astar, William Lanteau, Ken Lynch, Simon Scott
PRODUCTORA: MGM
GÉNERO: Comedia | Comedia romántica. Juego
UPLOADER: Odinko

Imagen
Un teniente de la Marina, que forma parte de la tripulación de un barco americano anclado frente a Venecia, proyecta hacer saltar la banca del casino de la ciudad, sirviéndose del ordenador del barco. (FILMAFFINITY)

Imagen
Imagen

¿ Quieres más capturas ? (Ver spoiler)
Ocultar:
ImagenImagenImagenImagenImagenImagenImagenImagenImagenImagenImagenImagenImagenImagenImagenImagenImagenImagenImagenImagenImagen

También en facebook:
Ocultar:



IDIOMA: Dual Castellano / Inglés con subtítulos en español

Imagen
MEDIAINFO: (Ver Spoiler)
Ocultar:
Zafarrancho en el casino (1961).(Dual-Esp-Ing+Subs-Esp).DVDRip x264 AC3.by.Odinko (CineClasicoConecta2).mkv
Format : Matroska
Format version : Version 4 / Version 2
File size : 1.39 GiB
Duration : 1h 23mn
Overall bit rate : 2 386 Kbps
Movie name : Zafarrancho en el casico ( 1961 ) - MKV creado por Odinko de Cine Clásico Conecta2
Encoded date : UTC 2013-08-05 20:09:06
Writing application : mkvmerge v6.3.0 ('You can't stop me!') built on Jun 28 2013 20:09:41
Writing library : libebml v1.3.0 + libmatroska v1.4.0

Video
ID : 1
Format : AVC
Format/Info : Advanced Video Codec
Format profile : Main@L3.0
Format settings, CABAC : Yes
Format settings, ReFrames : 4 frames
Codec ID : V_MPEG4/ISO/AVC
Duration : 1h 23mn
Bit rate : 2 000 Kbps
Width : 720 pixels
Height : 434 pixels
Display aspect ratio : 2.35:1
Original display aspect ratio : 1.659
Frame rate mode : Constant
Frame rate : 25.000 fps
Color space : YUV
Chroma subsampling : 4:2:0
Bit depth : 8 bits
Scan type : Progressive
Bits/(Pixel*Frame) : 0.256
Stream size : 1.14 GiB (82%)
Writing library : x264 core 120
Encoding settings : cabac=1 / ref=1 / deblock=1:0:0 / analyse=0x1:0x111 / me=hex / subme=7 / psy=1 / psy_rd=1.00:0.00 / mixed_ref=0 / me_range=16 / chroma_me=1 / trellis=0 / 8x8dct=0 / cqm=0 / deadzone=21,11 / fast_pskip=1 / chroma_qp_offset=-2 / threads=3 / sliced_threads=0 / nr=0 / decimate=1 / interlaced=0 / bluray_compat=0 / constrained_intra=0 / bframes=3 / b_pyramid=2 / b_adapt=1 / b_bias=0 / direct=1 / weightb=1 / open_gop=0 / weightp=1 / keyint=250 / keyint_min=25 / scenecut=40 / intra_refresh=0 / rc_lookahead=10 / rc=2pass / mbtree=1 / bitrate=2000 / ratetol=1.0 / qcomp=0.60 / qpmin=3 / qpmax=69 / qpstep=4 / cplxblur=20.0 / qblur=0.5 / ip_ratio=1.40 / aq=1:1.00
Language : English
Default : Yes
Forced : No
Color primaries : BT.601 NTSC
Transfer characteristics : BT.709
Matrix coefficients : BT.601

Audio #1
ID : 2
Format : AC-3
Format/Info : Audio Coding 3
Mode extension : CM (complete main)
Format settings, Endianness : Big
Codec ID : A_AC3
Duration : 1h 23mn
Bit rate mode : Constant
Bit rate : 192 Kbps
Channel(s) : 2 channels
Channel positions : Front: L R
Sampling rate : 48.0 KHz
Bit depth : 16 bits
Compression mode : Lossy
Stream size : 115 MiB (8%)
Title : Castellano AC3
Language : Spanish
Default : Yes
Forced : No

Audio #2
ID : 3
Format : AC-3
Format/Info : Audio Coding 3
Mode extension : CM (complete main)
Format settings, Endianness : Big
Codec ID : A_AC3
Duration : 1h 23mn
Bit rate mode : Constant
Bit rate : 192 Kbps
Channel(s) : 2 channels
Channel positions : Front: L R
Sampling rate : 48.0 KHz
Bit depth : 16 bits
Compression mode : Lossy
Stream size : 115 MiB (8%)
Title : Inglés AC3
Language : English
Default : No
Forced : No

Text
ID : 4
Format : UTF-8
Codec ID : S_TEXT/UTF8
Codec ID/Info : UTF-8 Plain Text
Title : Español
Language : Spanish
Default : Yes
Forced : No

Menu
00:00:00.000 : :Chapter 1
00:10:30.240 : :Chapter 2
00:21:00.000 : :Chapter 3
00:31:30.240 : :Chapter 4
00:42:00.000 : :Chapter 5
00:52:30.240 : :Chapter 6
01:03:23.040 : :Chapter 7
01:13:30.240 : :Chapter 8

ImagenZafarrancho en el casino (1961).(Dual-Esp-Ing+Subs-Esp).(MKV).part1.rar
ImagenZafarrancho en el casino (1961).(Dual-Esp-Ing+Subs-Esp).(MKV).part2.rar






_________________

Imagen


_________________

Estos usuarios agradecierón al autor Odinko (SagitarioXP) por el mensaje (total 3):
edan50 (Vie Dic 27, 2013 12:40 am) • txapinero (Mar Oct 01, 2013 10:01 pm) • jddlameyer (Mié Sep 04, 2013 11:15 am)
Valoración: 50%
 


Jue Ago 08, 2013 7:08 pm
Perfil   WWW
Grumete
Grumete
Avatar de Usuario

Registrado: Sab Abr 13, 2013 2:51 am
Mensajes: 132
Agradecido : 66 veces
Agradecimiento recibido: 55 veces
Nota Re: Zafarrancho en el casino | 1961 | Dual-Esp-Ing+Subs-Esp
¡Muchas gracias por la subida!

_________________

Estos usuarios agradecierón al autor Spockester por el mensaje:
tardon2 (Mar Ago 20, 2013 11:54 pm)
Valoración: 16.67%
 


Dom Ago 11, 2013 1:10 am
Perfil  
Capitán Pirata
Capitán Pirata
Avatar de Usuario

Registrado: Jue Feb 09, 2012 2:19 pm
Mensajes: 1949
Ubicación: España
Agradecido : 526 veces
Agradecimiento recibido: 451 veces
Nota Re: Zafarrancho en el casino | 1961 | Dual-Esp-Ing+Subs-Esp
A ti Spockester ;)
Que disfrutes de su visionado :sombrero:

_________________

Imagen

_________________

Estos usuarios agradecierón al autor Odinko (SagitarioXP) por el mensaje:
tardon2 (Mar Ago 20, 2013 11:54 pm)
Valoración: 16.67%
 


Dom Ago 11, 2013 4:21 am
Perfil   WWW
Mostrar mensajes previos:  Ordenar por  
Responder al tema   [ 3 mensajes ] 

Todos los horarios son UTC + 1 hora [ DST ]


¿Quién está conectado?

Usuarios navegando por este Foro: No hay usuarios registrados visitando el Foro y 2 invitados


No puede abrir nuevos temas en este Foro
No puede responder a temas en este Foro
No puede editar sus mensajes en este Foro
No puede borrar sus mensajes en este Foro

Saltar a:  

Powered by phpBB © 2000, 2002, 2005, 2007 phpBB Group.
Designed by STSoftware for PTF.


rss sindicación xml Anadir noticias de este foro a igoogle