Buscar temas sin respuesta | Ver temas activos Fecha actual Jue Sep 21, 2017 12:23 pm

Todos los horarios son UTC + 1 hora [ DST ]







Responder al tema  [ 2 mensajes ] 
 Toma el dinero y corre | 1969 | Dual-Esp-Ing+Subs-Esp 
Autor Mensaje
Capitán Pirata
Capitán Pirata
Avatar de Usuario

Registrado: Jue Feb 09, 2012 2:19 pm
Mensajes: 1949
Ubicación: España
Agradecido : 526 veces
Agradecimiento recibido: 451 veces
Nota Toma el dinero y corre | 1969 | Dual-Esp-Ing+Subs-Esp
Imagen


Toma el dinero y corre | 1969 | Take the Money and Run

Imagen

DURACIÓN: 85 min.
PAÍS: Estados Unidos
DIRECTOR: Woody Allen
GUIÓN: Woody Allen & Mickey Rose
MÚSICA: Marvin Hamlisch
FOTOGRAFÍA: Lester Shorr
REPARTO: Woody Allen, Janet Margolin, Marcel Hillaire, Jacqueline Hyde, Jan Merlin, Lonny Chapman
PRODUCTORA: Jack Rollins & Charles H. Joffe Productions
GÉNERO: Comedia | Falso documental
UPLOADER: Odinko

Imagen
Una serie de entrevistas, con quienes lo conocieron, nos introduce en la vida del incompetente atracador Virgil Starkwell, que desde el principio estuvo abocado a la delincuencia: durante su infancia vivió sometido y humillado por los chicos más fuertes, y cuando descubrió que su carrera musical no tenía futuro, a Virgil no le quedó más remedio que robar, pero su escaso talento pronto lo conduciría a la cárcel.

CRITICAS:
Primera y divertidísima película del maestro Woody Allen. La delirante historia en forma de sketches cuyo hilo conductor narra las desventuras del pobre Virgil muestra el talento innato para el humor del neoyorquino, que ya estaba triunfando en los teatros de la ciudad de los rascacielos con sus geniales monólogos. (FILMAFFINITY)
----------------------------------------
"Lo asombroso es lo bien que funciona todo el tiempo. Allen ha hecho una película que es, en verdad, un comedia de larga duración, algo muy especial, excéntrico y divertido." (Vincent Canby: The New York Times)

Imagen
Imagen

IDIOMA: Dual Castellano / Inglés con subtítulos en español

Imagen
MEDIAINFO: (Ver Spoiler)
Ocultar:
Toma el dinero y corre (1969)(Dual-Esp-Ing+Subs-Esp).XviD.AC3.by.Odinko.(CineClasicoConecta2).mkv
Format : Matroska
Format version : Version 2
File size : 1.63 GiB
Duration : 1h 20mn
Overall bit rate : 2 914 Kbps
Movie name : Toma el dinero y corre (1969) - MKV creado por Odinko de Cine Clásico Conecta2
Encoded date : UTC 2013-06-26 01:16:01
Writing application : mkvmerge v5.8.0 ('No Sleep / Pillow') built on Sep 2 2012 15:37:04
Writing library : libebml v1.2.3 + libmatroska v1.3.0

Video
ID : 1
Format : MPEG-4 Visual
Format profile : Advanced Simple@L5
Format settings, BVOP : Yes
Format settings, QPel : No
Format settings, GMC : No warppoints
Format settings, Matrix : Default (H.263)
Codec ID : V_MS/VFW/FOURCC / XVID
Codec ID/Hint : XviD
Duration : 1h 20mn
Bit rate : 2 344 Kbps
Width : 640 pixels
Height : 352 pixels
Display aspect ratio : 16:9
Frame rate mode : Constant
Frame rate : 25.000 fps
Color space : YUV
Chroma subsampling : 4:2:0
Bit depth : 8 bits
Scan type : Progressive
Compression mode : Lossy
Bits/(Pixel*Frame) : 0.416
Stream size : 1.31 GiB (80%)
Writing library : XviD 1.1.0 (UTC 2005-11-22)
Default : Yes
Forced : No

Audio #1
ID : 2
Format : AC-3
Format/Info : Audio Coding 3
Mode extension : CM (complete main)
Format settings, Endianness : Big
Muxing mode : Header stripping
Codec ID : A_AC3
Duration : 1h 20mn
Bit rate mode : Constant
Bit rate : 256 Kbps
Channel(s) : 2 channels
Channel positions : Front: L R
Sampling rate : 48.0 KHz
Bit depth : 16 bits
Compression mode : Lossy
Stream size : 147 MiB (9%)
Title : AC3.Castellano
Language : Spanish
Default : Yes
Forced : No

Audio #2
ID : 3
Format : AC-3
Format/Info : Audio Coding 3
Mode extension : CM (complete main)
Format settings, Endianness : Big
Muxing mode : Header stripping
Codec ID : A_AC3
Duration : 1h 20mn
Bit rate mode : Constant
Bit rate : 256 Kbps
Channel(s) : 2 channels
Channel positions : Front: L R
Sampling rate : 48.0 KHz
Bit depth : 16 bits
Compression mode : Lossy
Stream size : 147 MiB (9%)
Title : AC3.Inglés (V.O.)
Language : English
Default : No
Forced : No

Text
ID : 4
Format : UTF-8
Codec ID : S_TEXT/UTF8
Codec ID/Info : UTF-8 Plain Text
Title : Español
Default : Yes
Forced : No

Menu
00:00:00.000 : en:Chapter 1
00:10:00.000 : en:Chapter 2
00:20:00.000 : en:Chapter 3
00:30:00.000 : en:Chapter 4
00:40:00.000 : en:Chapter 5
00:50:00.000 : en:Chapter 6
01:00:00.000 : en:Chapter 7
01:05:00.000 : en:Chapter 8
01:10:00.000 : en:Chapter 9
01:15:00.000 : en:Chapter 10
01:20:00.000 : en:Chapter 20
ImagenToma el dinero y corre (1969).(Dual-Esp-Ing+Subs-Esp).(MKV).part1.rar
ImagenToma el dinero y corre (1969).(Dual-Esp-Ing+Subs-Esp).(MKV).part2.rar
ImagenToma el dinero y corre (1969).(Dual-Esp-Ing+Subs-Esp).(MKV).part3.rar






_________________

Imagen



Dom Abr 01, 2012 10:46 pm
Perfil   WWW
Nota 
Absolutamente genial! también la recomiendo


Dom Abr 01, 2012 10:46 pm
 
Mostrar mensajes previos:  Ordenar por  
Responder al tema   [ 2 mensajes ] 

Todos los horarios son UTC + 1 hora [ DST ]


¿Quién está conectado?

Usuarios navegando por este Foro: No hay usuarios registrados visitando el Foro y 1 invitado


No puede abrir nuevos temas en este Foro
No puede responder a temas en este Foro
No puede editar sus mensajes en este Foro
No puede borrar sus mensajes en este Foro

Saltar a:  

Powered by phpBB © 2000, 2002, 2005, 2007 phpBB Group.
Designed by STSoftware for PTF.


rss sindicación xml Anadir noticias de este foro a igoogle