Buscar temas sin respuesta | Ver temas activos Fecha actual Mar Jun 25, 2019 11:55 am

Todos los horarios son UTC + 1 hora [ DST ]



Responder al tema  [ 4 mensajes ] 
 Dos pares de mellizos | 1936 | Castellano 
Autor Mensaje
Capitán Pirata
Capitán Pirata
Avatar de Usuario

Registrado: Jue Feb 09, 2012 2:19 pm
Mensajes: 1949
Ubicación: España
Agradecido : 526 veces
Agradecimiento recibido: 451 veces
Nota Dos pares de mellizos | 1936 | Castellano
Imagen

Descargar El gordo y el flaco - Dos pares de mellizos
Imagen

TÍTULO ORIGINAL: our Relations
AÑO: 1936
DURACIÓN: 73 min.
PAÍS: Estados Unidos
DIRECTOR: Harry Lachman
GUIÓN: Felix Adler, Richard Connell, Jack Jevne, Charley Rogers (Historia: W.W. Jacobs)
MÚSICA: Leroy Shield
FOTOGRAFÍA: Rudolph Maté (B&W)
REPARTO: Stan Laurel, Oliver Hardy, Alan Hale, Sidney Toler, Daphne Pollard, Betty Healy, James Finlayson, Iris Adrian
PRODUCTORA: Stan Laurel Productions / Hal Roach Studios
GÉNERO: Comedia
UPLOADER: Odinko

Imagen
Los magos del humor, Laurel y Hardy, interpretan a dos marineros encargados de entregar un valioso paquete en el puerto donde, por casualidad, viven sus hermanos gemelos, felizmente casados. Los gemelos y sus dos novias se intercambian, por error, con sus hermanos. Uno de los más divertidos trabajos de los míticos Laurel y Hardy, conocidos en España como El gordo y el flaco. En esta ocasión interpretan dos papeles cada uno, lo que fue posible gracias a los magistrales trucos fotográficos del cámara Rudolph Maté, uno de los grandes directores de fotografía de la historia del cine
CRITICAS:Divertidísimo largometraje de este duo cómico que tan bien funcionó en la década de los años de 30. En "Dos pares de mellizos", Stan Laurel y Oliver Hardy se encargan de entregar una valiosa sortija en una ciudad donde casualmente viven sus hermanos gemelos. Laurel y Hardy serán confundidos por sus hermanos (Bert y Alf) y eso provocará una serie de situaciones ridículas, absurdas, hilarantes y sobretodo graciosas. La histotia se sigue con interés gracias a su ritmo trepidante y a la sucesión de gags a la que asistimos, si bien es cierto que el hecho de interpretar dos papeles cada protagonista puede causar confusión.

Imagen
Imagen

IDIOMA: Castellano

Imagen
MEDIAINFO: (Ver Spoiler)
Ocultar:
Dos Pares de Mellizos.(1936).(Castellano).Divx.DVDrip.by.Odinko.CineClasicoConecta2.avi
Format : AVI
Format/Info : Audio Video Interleave
File size : 612 MiB
Duration : 1h 9mn
Overall bit rate : 1 228 Kbps
Writing library : VirtualDub build 13130/release

Video
ID : 0
Format : MPEG-4 Visual
Codec ID : DIV3
Codec ID/Hint : DivX 3 Low
Duration : 1h 9mn
Bit rate : 1 122 Kbps
Width : 384 pixels
Height : 288 pixels
Display aspect ratio : 4:3
Frame rate : 25.000 fps
Color space : YUV
Chroma subsampling : 4:2:0
Bit depth : 8 bits
Compression mode : Lossy
Bits/(Pixel*Frame) : 0.406
Stream size : 559 MiB (91%)

Audio
ID : 1
Format : MPEG Audio
Format version : Version 1
Format profile : Layer 3
Mode : Joint stereo
Mode extension : Intensity Stereo + MS Stereo
Codec ID : 55
Codec ID/Hint : MP3
Duration : 1h 9mn
Bit rate mode : Constant
Bit rate : 96.0 Kbps
Channel(s) : 2 channels
Sampling rate : 44.1 KHz
Compression mode : Lossy
Stream size : 47.8 MiB (8%)
Alignment : Split accross interleaves
Interleave, duration : 40 ms (1.00 video frame)
Interleave, preload duration : 462 ms
Dos Pares de Mellizos.(Castellano).rar





_________________


Jue Abr 26, 2012 6:25 pm
Perfil   WWW
Mariner@
Mariner@
Avatar de Usuario

Registrado: Mar Mar 12, 2013 2:36 pm
Mensajes: 398
Ubicación: Málaga-España
Agradecido : 0 vez
Agradecimiento recibido: 52 veces
Nota 
El link no funciona o está caducado, ESTAN.

Haber si lo puedes resubir por favor. Gracias. :cry:

_________________
Imagen


Dom Abr 28, 2013 10:16 pm
Perfil  
Polizón
Polizón

Registrado: Mar Jun 11, 2013 12:48 pm
Mensajes: 10
Agradecido : 0 vez
Agradecimiento recibido: 0 vez
Nota Re: El Gordo y el Flaco Dos pares de mellizos [1936] Castell
El enlace no funciona

Gracias por vuestro esfuerzo


Sab Jun 15, 2013 2:13 am
Perfil  
Capitán Pirata
Capitán Pirata
Avatar de Usuario

Registrado: Jue Feb 09, 2012 2:19 pm
Mensajes: 1949
Ubicación: España
Agradecido : 526 veces
Agradecimiento recibido: 451 veces
Nota Re: El Gordo y el Flaco Dos pares de mellizos [1936] Castell
Pronto la tendré resubida, saludos y gracias ! ;)

_________________

Imagen


Sab Jun 15, 2013 2:41 am
Perfil   WWW
Mostrar mensajes previos:  Ordenar por  
Responder al tema   [ 4 mensajes ] 

Todos los horarios son UTC + 1 hora [ DST ]


¿Quién está conectado?

Usuarios navegando por este Foro: No hay usuarios registrados visitando el Foro y 1 invitado


No puede abrir nuevos temas en este Foro
No puede responder a temas en este Foro
No puede editar sus mensajes en este Foro
No puede borrar sus mensajes en este Foro

Saltar a:  
Powered by phpBB © 2000, 2002, 2005, 2007 phpBB Group.
Designed by STSoftware for PTF.


rss sindicación xml Anadir noticias de este foro a igoogle