Buscar temas sin respuesta | Ver temas activos Fecha actual Jue Ene 17, 2019 10:13 am

Todos los horarios son UTC + 1 hora







Responder al tema  [ 7 mensajes ] 
 La venganza del bergantín | 1948 | Dual-Esp-Ing 
Autor Mensaje
Capitán Pirata
Capitán Pirata
Avatar de Usuario

Registrado: Jue Feb 09, 2012 1:19 pm
Mensajes: 1949
Ubicación: España
Agradecido : 526 veces
Agradecimiento recibido: 451 veces
Nota La venganza del bergantín | 1948 | Dual-Esp-Ing

Imagen


La venganza del bergantín | 1948 | Wake of the Red Witch

Imagen

DURACIÓN: 106 min.
PAÍS: Estados Unidos
DIRECTOR: Edward Ludwig
GUIÓN: Harry Brown, Kenneth Gamet (Novela: Garland Roark)
MÚSICA: Nathan Scott
FOTOGRAFÍA: Reggie Lanning (B&W)
REPARTO: John Wayne, Gail Russell, Gig Young, Adele Mara, Luther Adler, Eduard Franz, Grant Withers, Henry Daniell, Paul Fix, Dennis Hoey, Jeff Corey, Erskine Sandford, Henry Brandon
PRODUCTORA: Republic Pictures
GÉNERO: Aventuras. Acción
UPLOADER: Odinko

Imagen
El capitán Ralls surca los mares tropicales en busca de un tesoro de perlas escondido en el territorio de un enorme pulpo. Su rival será otro marinero llamado Sam Rosen, que busca lo mismo, y ambos pelearán además por los favores de la chica, una bella indígena.

Imagen
Imagen

IDIOMA: Dual Castellano / Inglés

Imagen
MEDIAINFO: (Ver Spoiler)
Ocultar:
La venganza del bergantín .(1948).(Dual-Esp-Ing).HDrip.XviD.AC3-.by.Odinko.(CineClasicoConecta2).avi
Format : AVI
Format/Info : Audio Video Interleave
File size : 1.80 GiB
Duration : 1h 47mn
Overall bit rate : 2 409 Kbps
Writing application : VirtualDubMod 1.5.10.2 (build 2540/release)
Writing library : VirtualDubMod build 2540/release

Video
ID : 0
Format : MPEG-4 Visual
Format profile : Advanced Simple@L5
Format settings, BVOP : 2
Format settings, QPel : No
Format settings, GMC : No warppoints
Format settings, Matrix : Default (MPEG)
Codec ID : XVID
Codec ID/Hint : XviD
Duration : 1h 47mn
Bit rate : 2 011 Kbps
Width : 720 pixels
Height : 528 pixels
Display aspect ratio : 4:3
Frame rate : 23.976 fps
Color space : YUV
Chroma subsampling : 4:2:0
Bit depth : 8 bits
Scan type : Progressive
Compression mode : Lossy
Bits/(Pixel*Frame) : 0.221
Stream size : 1.50 GiB (83%)
Writing library : XviD 1.2.1 (UTC 2008-12-04)

Audio #1
ID : 1
Format : AC-3
Format/Info : Audio Coding 3
Mode extension : CM (complete main)
Format settings, Endianness : Big
Codec ID : 2000
Duration : 1h 47mn
Bit rate mode : Constant
Bit rate : 192 Kbps
Channel(s) : 2 channels
Channel positions : Front: L R
Sampling rate : 48.0 KHz
Bit depth : 16 bits
Compression mode : Lossy
Stream size : 147 MiB (8%)
Alignment : Split accross interleaves
Interleave, duration : 42 ms (1.00 video frame)
Interleave, preload duration : 500 ms

Audio #2
ID : 2
Format : AC-3
Format/Info : Audio Coding 3
Mode extension : CM (complete main)
Format settings, Endianness : Big
Codec ID : 2000
Duration : 1h 47mn
Bit rate mode : Constant
Bit rate : 192 Kbps
Channel(s) : 1 channel
Channel positions : Front: C
Sampling rate : 48.0 KHz
Bit depth : 16 bits
Compression mode : Lossy
Stream size : 147 MiB (8%)
Alignment : Split accross interleaves
Interleave, duration : 42 ms (1.00 video frame)
Interleave, preload duration : 500 ms
ImagenLa venganza del bergantín .(1948).(Dual-Esp-Ing).HD.part1.rar
ImagenLa venganza del bergantín .(1948).(Dual-Esp-Ing).HD.part2.rar
ImagenLa venganza del bergantín .(1948).(Dual-Esp-Ing).HD.part3.rar






_________________

Imagen


_________________

Estos usuarios agradecierón al autor Odinko (SagitarioXP) por el mensaje (total 3):
menaxio (Mar Sep 24, 2013 7:57 pm) • musterkow (Dom Ago 18, 2013 5:26 pm) • elmajete (Dom Ago 18, 2013 11:33 am)
Valoración: 50%
 


Lun Jul 22, 2013 12:14 am
Perfil   WWW
Polizón
Polizón

Registrado: Jue May 09, 2013 6:56 am
Mensajes: 11
Agradecido : 11 veces
Agradecimiento recibido: 5 veces
Nota Re: La venganza del bergantín | 1948 | Dual-Esp-Ing
Gracias por el aporte (ohh)


Mar Jul 23, 2013 12:33 pm
Perfil  
Capitán Pirata
Capitán Pirata
Avatar de Usuario

Registrado: Jue Feb 09, 2012 1:19 pm
Mensajes: 1949
Ubicación: España
Agradecido : 526 veces
Agradecimiento recibido: 451 veces
Nota Re: La venganza del bergantín | 1948 | Dual-Esp-Ing
Me alegra que te guste.. gracias por tus comentarios :)

_________________

Imagen


Mar Jul 23, 2013 3:25 pm
Perfil   WWW
Polizón
Polizón

Registrado: Sab Jul 20, 2013 1:07 am
Mensajes: 18
Agradecido : 11 veces
Agradecimiento recibido: 8 veces
Nota Re: La venganza del bergantín | 1948 | Dual-Esp-Ing
Muchas gracias por este clásico amigo odinko :Claps: :Claps:


Dom Ago 18, 2013 11:36 am
Perfil  
Tripulante
Tripulante
Avatar de Usuario

Registrado: Dom May 27, 2012 1:57 pm
Mensajes: 229
Agradecido : 28 veces
Agradecimiento recibido: 41 veces
Nota Re: La venganza del bergantín | 1948 | Dual-Esp-Ing
Muchísimas gracias Odinko, muy entretenida esta peli. :buenaporte: :bravo: :atuspies:


Dom Ago 18, 2013 5:33 pm
Perfil  
Capitán Pirata
Capitán Pirata
Avatar de Usuario

Registrado: Jue Feb 09, 2012 1:19 pm
Mensajes: 1949
Ubicación: España
Agradecido : 526 veces
Agradecimiento recibido: 451 veces
Nota Re: La venganza del bergantín | 1948 | Dual-Esp-Ing
Gracias a ustedes por sus comentarios señores.
Espero que hayan disfrutado de su visualización.
Un abrazo :)

_________________

Imagen


Mié Ago 28, 2013 4:10 pm
Perfil   WWW
Polizón
Polizón

Registrado: Dom Ene 19, 2014 3:50 pm
Mensajes: 31
Agradecido : 28 veces
Agradecimiento recibido: 14 veces
Nota Re: La venganza del bergantín | 1948 | Dual-Esp-Ing
Muchas gracias por esta película de John Wayne que desconocía.


Mié Ene 22, 2014 1:58 am
Perfil  
Mostrar mensajes previos:  Ordenar por  
Responder al tema   [ 7 mensajes ] 

Todos los horarios son UTC + 1 hora


¿Quién está conectado?

Usuarios navegando por este Foro: No hay usuarios registrados visitando el Foro y 1 invitado


No puede abrir nuevos temas en este Foro
No puede responder a temas en este Foro
No puede editar sus mensajes en este Foro
No puede borrar sus mensajes en este Foro

Saltar a:  

Powered by phpBB © 2000, 2002, 2005, 2007 phpBB Group.
Designed by STSoftware for PTF.


rss sindicación xml Anadir noticias de este foro a igoogle