Buscar temas sin respuesta | Ver temas activos Fecha actual Mar Jun 25, 2019 11:27 am

Todos los horarios son UTC + 1 hora [ DST ]







Responder al tema  [ 1 mensaje ] 
 El tigre se perfuma con dinamita | 1965 | Castellano 
Autor Mensaje
Capitán Pirata
Capitán Pirata
Avatar de Usuario

Registrado: Jue Feb 09, 2012 2:19 pm
Mensajes: 1949
Ubicación: España
Agradecido : 526 veces
Agradecimiento recibido: 451 veces
Nota El tigre se perfuma con dinamita | 1965 | Castellano

Imagen


Imagen

TÍTULO ORIGINAL: Le Tigre se parfume à la dynamite - An Orchid for the Tiger (Our Agent Tiger)
AÑO: 1965
DURACIÓN: 85 min.
PAÍS: Francia
DIRECTOR: Claude Chabrol
GUIÓN: Jean Curtelin, Roger Hanin
MÚSICA: Jean Wiener
FOTOGRAFÍA: Mario Bistagne, Jean Rabier
REPARTO: Roger Hanin, Margaret Lee, Michel Bouquet, Micaela Pignatelli, Carlos Casaravilla, José Nieto, José María Caffarel, George Rigaud, Roger Dumas
PRODUCTORA: Balcázar Producciones Cinematográficas
GÉNERO: Aventuras. Comedia. Intriga | Espionaje
UPLOADER: Odinko

Imagen
El agente secreto Louis Rapière, cuyo nombre en clave es “El tigre”, es enviado a la Guyana francesa para supervisar la recuperación del tesoro de un barco hundido. La operación es secuestrada por un grupo de mercenarios armados que escapan con el tesoro después de una sangrienta lucha. Rapière descubre que el tesoro está en manos de un grupo de revolucionarios que intentan venderlo a una organización terrorista internacional, Orchid, usando el dinero para comprar armas que necesitan para derrocar al gobierno del país. (FILMAFFINITY)

Imagen
Imagen

IDIOMA: Castellano

Imagen
MEDIAINFO: (Ver Spoiler)
Ocultar:
El tigre se perfuma con dinamita.(1965).(Castellano).DVB-Rip.XviD.by.Odinko.(CineClasicoConecta2).avi
Format : AVI
Format/Info : Audio Video Interleave
File size : 1.09 GiB
Duration : 1h 20mn
Overall bit rate : 1 922 Kbps
Writing application : VirtualDubMod 1.5.10.2 (build 2542/release)
Writing library : VirtualDubMod build 2542/release

Video
ID : 0
Format : MPEG-4 Visual
Format profile : Advanced Simple@L5
Format settings, BVOP : 2
Format settings, QPel : No
Format settings, GMC : No warppoints
Format settings, Matrix : Default (H.263)
Codec ID : XVID
Codec ID/Hint : XviD
Duration : 1h 20mn
Bit rate : 1 721 Kbps
Width : 672 pixels
Height : 360 pixels
Display aspect ratio : 1.85:1
Frame rate : 25.000 fps
Color space : YUV
Chroma subsampling : 4:2:0
Bit depth : 8 bits
Scan type : Progressive
Compression mode : Lossy
Bits/(Pixel*Frame) : 0.285
Stream size : 994 MiB (90%)
Writing library : XviD 64

Audio
ID : 1
Format : MPEG Audio
Format version : Version 1
Format profile : Layer 3
Codec ID : 55
Codec ID/Hint : MP3
Duration : 1h 20mn
Bit rate mode : Constant
Bit rate : 192 Kbps
Channel(s) : 2 channels
Sampling rate : 48.0 KHz
Compression mode : Lossy
Stream size : 111 MiB (10%)
Alignment : Split accross interleaves
Interleave, duration : 40 ms (1.00 video frame)
Interleave, preload duration : 500 ms
El tigre se perfuma con dinamita.(1965).(Castellano).part1.rar
El tigre se perfuma con dinamita.(1965).(Castellano).part2.rar




Enlace de eMule:
El tigre se perfuma con dinamita.(1965).(Castellano).DVB-Rip.XviD.by.Odinko.(CineClasicoConecta2).avi




_________________

Imagen



Lun Abr 01, 2013 7:42 pm
Perfil   WWW
Mostrar mensajes previos:  Ordenar por  
Responder al tema   [ 1 mensaje ] 

Todos los horarios son UTC + 1 hora [ DST ]


¿Quién está conectado?

Usuarios navegando por este Foro: No hay usuarios registrados visitando el Foro y 1 invitado


No puede abrir nuevos temas en este Foro
No puede responder a temas en este Foro
No puede editar sus mensajes en este Foro
No puede borrar sus mensajes en este Foro

Saltar a:  

Powered by phpBB © 2000, 2002, 2005, 2007 phpBB Group.
Designed by STSoftware for PTF.


rss sindicación xml Anadir noticias de este foro a igoogle