Buscar temas sin respuesta | Ver temas activos Fecha actual Mar Jun 25, 2019 12:13 pm

Todos los horarios son UTC + 1 hora [ DST ]







Responder al tema  [ 1 mensaje ] 
 El Primer Caballero | 1995 | Dual-Esp-Ing+Subs-Esp-Forz-Ing 
Autor Mensaje
Capitán Pirata
Capitán Pirata
Avatar de Usuario

Registrado: Jue Feb 09, 2012 2:19 pm
Mensajes: 1949
Ubicación: España
Agradecido : 526 veces
Agradecimiento recibido: 451 veces
Nota El Primer Caballero | 1995 | Dual-Esp-Ing+Subs-Esp-Forz-Ing

Imagen


El Primer Caballero | 1995 | First Knight

Imagen

DURACIÓN: 133 min.
PAÍS: Estados Unidos
DIRECTOR: Jerry Zucker
GUIÓN: William Nicholson
MÚSICA: Jerry Goldsmith
FOTOGRAFÍA: Adam Greenberg
REPARTO: Julia Ormond, Richard Gere, Sean Connery, Ben Cross, Liam Cunningham, John Gielgud, Colin McCormack, Christopher Villiers, Valentine Pelka
PRODUCTORA: Columbia Pictures
GÉNERO: Aventuras. Romance | Drama romántico. Edad Media. Capa y espada
UPLOADER: Odinko

Imagen
Amor, honor, traición y pasión en el Reino de Camelot. Cuando Lady Ginebra contrae matrimonio con el rey Arturo, lo hace movida por dos razones: el respeto y la admiración que siente por él y la necesidad de que proteja su reino, Leonesse. Pero el destino hace que se cruce en su camino el apuesto caballero Lanzarote, recién llegado a Camelot. Surge de inmediato el amor entre ellos, colocando a Ginebra en la tesitura de elegir entre el rey o Lanzarote.

Imagen
Imagen

IDIOMA: Dual Castellano / Inglés con subtítulos en español, forzados e inglés

Imagen
MEDIAINFO: (Ver Spoiler)
Ocultar:
El.primer.caballero.(1995).(Dual-Esp-Ing+Subs-Esp-Forz-Ing).BDrip.1080p.x264.by.Odinko.(CineClasicoConecta2).mkv
Format : Matroska
Format version : Version 2
File size : 2.67 GiB
Duration : 2h 13mn
Overall bit rate : 2 857 Kbps
Movie name : El primer caballero (1995) - MKV creado por Odinko de Cine Clásico Conecta2
Encoded date : UTC 2013-06-27 14:16:42
Writing application : mkvmerge v5.8.0 ('No Sleep / Pillow') built on Sep 2 2012 15:37:04
Writing library : libebml v1.2.3 + libmatroska v1.3.0

Video
ID : 1
Format : AVC
Format/Info : Advanced Video Codec
Format profile : High@L4.0
Format settings, CABAC : Yes
Format settings, ReFrames : 4 frames
Muxing mode : Header stripping
Codec ID : V_MPEG4/ISO/AVC
Duration : 2h 13mn
Bit rate : 1 534 Kbps
Width : 1 920 pixels
Height : 1 040 pixels
Display aspect ratio : 1.85:1
Frame rate mode : Constant
Frame rate : 23.976 fps
Color space : YUV
Chroma subsampling : 4:2:0
Bit depth : 8 bits
Scan type : Progressive
Bits/(Pixel*Frame) : 0.032
Stream size : 1.43 GiB (54%)
Title : axis
Writing library : x264 core 128 r2216 198a7ea
Encoding settings : cabac=1 / ref=3 / deblock=1:-1:-1 / analyse=0x3:0x113 / me=hex / subme=7 / psy=1 / psy_rd=1.00:0.15 / mixed_ref=1 / me_range=16 / chroma_me=1 / trellis=1 / 8x8dct=1 / cqm=0 / deadzone=21,11 / fast_pskip=1 / chroma_qp_offset=-3 / threads=6 / lookahead_threads=1 / sliced_threads=0 / nr=0 / decimate=1 / interlaced=0 / bluray_compat=0 / constrained_intra=0 / bframes=3 / b_pyramid=2 / b_adapt=1 / b_bias=0 / direct=1 / weightb=1 / open_gop=0 / weightp=2 / keyint=250 / keyint_min=23 / scenecut=40 / intra_refresh=0 / rc_lookahead=40 / rc=crf / mbtree=1 / crf=29.0 / qcomp=0.60 / qpmin=0 / qpmax=69 / qpstep=4 / ip_ratio=1.40 / aq=1:1.00
Default : Yes
Forced : No

Audio #1
ID : 2
Format : AC-3
Format/Info : Audio Coding 3
Mode extension : CM (complete main)
Format settings, Endianness : Big
Muxing mode : Header stripping
Codec ID : A_AC3
Duration : 2h 13mn
Bit rate mode : Constant
Bit rate : 256 Kbps
Channel(s) : 6 channels
Channel positions : Front: L C R, Side: L R, LFE
Sampling rate : 48.0 KHz
Bit depth : 16 bits
Compression mode : Lossy
Stream size : 245 MiB (9%)
Title : AC3.Castellano
Language : Spanish
Default : Yes
Forced : No

Audio #2
ID : 3
Format : DTS
Format/Info : Digital Theater Systems
Mode : 16
Format settings, Endianness : Big
Muxing mode : Header stripping
Codec ID : A_DTS
Duration : 2h 13mn
Bit rate mode : Constant
Bit rate : 755 Kbps
Channel(s) : 6 channels
Channel positions : Front: L C R, Side: L R, LFE
Sampling rate : 48.0 KHz
Bit depth : 24 bits
Compression mode : Lossy
Stream size : 722 MiB (26%)
Title : DTS.Castellano
Language : Spanish
Default : No
Forced : No

Audio #3
ID : 4
Format : AC-3
Format/Info : Audio Coding 3
Mode extension : CM (complete main)
Format settings, Endianness : Big
Muxing mode : Header stripping
Codec ID : A_AC3
Duration : 2h 13mn
Bit rate mode : Constant
Bit rate : 256 Kbps
Channel(s) : 6 channels
Channel positions : Front: L C R, Side: L R, LFE
Sampling rate : 48.0 KHz
Bit depth : 16 bits
Compression mode : Lossy
Stream size : 245 MiB (9%)
Title : AC3.Inglés
Language : English
Default : No
Forced : No

Text #1
ID : 5
Format : UTF-8
Codec ID : S_TEXT/UTF8
Codec ID/Info : UTF-8 Plain Text
Title : Forzados Esp
Language : Spanish
Default : Yes
Forced : No

Text #2
ID : 6
Format : UTF-8
Codec ID : S_TEXT/UTF8
Codec ID/Info : UTF-8 Plain Text
Title : Español
Language : Spanish
Default : No
Forced : No

Text #3
ID : 7
Format : UTF-8
Codec ID : S_TEXT/UTF8
Codec ID/Info : UTF-8 Plain Text
Title : Inglés
Language : English
Default : No
Forced : No

Menu
00:00:00.000 : en:Chapter 1
00:10:00.000 : en:Chapter 2
00:20:00.000 : en:Chapter 3
00:30:00.000 : en:Chapter 4
00:40:00.000 : en:Chapter 5
00:50:00.000 : en:Chapter 6
01:00:00.000 : en:Chapter 7
01:05:00.000 : en:Chapter 8
01:10:00.000 : en:Chapter 9
01:15:00.000 : en:Chapter 10
01:20:00.000 : en:Chapter 20
ImagenEl.primer.caballero.(1995).(Dual-Esp-Ing+Subs-Esp-Forz-Ing).(MKV).part1.rar
ImagenEl.primer.caballero.(1995).(Dual-Esp-Ing+Subs-Esp-Forz-Ing).(MKV).part2.rar
ImagenEl.primer.caballero.(1995).(Dual-Esp-Ing+Subs-Esp-Forz-Ing).(MKV).part3.rar
ImagenEl.primer.caballero.(1995).(Dual-Esp-Ing+Subs-Esp-Forz-Ing).(MKV).part4.rar






_________________

Imagen



Sab Jun 29, 2013 6:43 pm
Perfil   WWW
Mostrar mensajes previos:  Ordenar por  
Responder al tema   [ 1 mensaje ] 

Todos los horarios son UTC + 1 hora [ DST ]


¿Quién está conectado?

Usuarios navegando por este Foro: No hay usuarios registrados visitando el Foro y 1 invitado


No puede abrir nuevos temas en este Foro
No puede responder a temas en este Foro
No puede editar sus mensajes en este Foro
No puede borrar sus mensajes en este Foro

Saltar a:  

Powered by phpBB © 2000, 2002, 2005, 2007 phpBB Group.
Designed by STSoftware for PTF.


rss sindicación xml Anadir noticias de este foro a igoogle