Buscar temas sin respuesta | Ver temas activos Fecha actual Mar Jun 25, 2019 11:34 am

Todos los horarios son UTC + 1 hora [ DST ]



Responder al tema  [ 4 mensajes ] 
 Constantino el grande | 1960 | Castellano 
Autor Mensaje
Mariner@
Mariner@
Avatar de Usuario

Registrado: Jue Feb 09, 2012 9:34 pm
Mensajes: 543
Agradecido : 57 veces
Agradecimiento recibido: 148 veces
Nota Constantino el grande | 1960 | Castellano


Imagen


Constantino El Grande | 1962 | Costantino il grande

Imagen

DURACIÓN: 129 Min.
PAÍS: Italia
DIRECTOR: Lionello De Felice
GUIÓN: Lionello De Felice, Ennio De Concini, Diego Fabbri, Ernesto Guida, Fulvio Palmieri, Franco Rossetti, Guglielmo Santangelo
MÚSICA: Mario Nascimbene
FOTOGRAFÍA: Massimo Dallamaro
REPARTO: Cornel Wilde, Belinda Lee, Massimo Serato, Christine Kaufmann, Fausto Tozzi, Tino Carraro, Carlo Ninchi, Vittorio Sanipoli, Elisa Cegani, Nando Gazzolo, Carlo Tamberlani
PRODUCTORA: Beaver-Champion Attractions / Jadran Film / Jonia Film
GÉNERO: Aventuras. Drama | Antigua Roma
UPLOAD: By Odinko

Imagen
A su regreso de la Galia, Constantino, hijo de Constancio Cloro, es víctima de los sucios manejos de Majencio, hermano de Fausta, la prometida de Constantino, Majencio desea asesinar a su rival como Emperador de Roma, pero la confabulación fracasa y Constantino se salva con la ayuda de algunos cristianos. Nombrado Augusto de la Galia, Constantino se casa con Fausta, pero, una vez más, Maximiano trata de asesinarlo y al ser descubierto se suicida. Constantino, en las proximidades del puente Milvio, se enfrenta al ejército de Majencio. La noche anterior a la batalla, Constantino tiene una visión de la cruz de Cristo y de su victoria. (FILMAFFINITY)

Imagen
Imagen

IDIOMA: Castellano

Imagen
MEDIAINFO: (Ver Spoiler)
Ocultar:
Constantino.El.Grande.(1962)(Castellano).SATRip.Xvid.by.Odinko.(CineClasicoConecta2).avi
Format : AVI
Format/Info : Audio Video Interleave
File size : 852 MiB
Duration : 2h 7mn
Overall bit rate : 932 Kbps
Writing application : VirtualDubMod 1.5.10.2 (build 2540/release)
Writing library : VirtualDubMod build 2540/release

Video
ID : 0
Format : MPEG-4 Visual
Format profile : Simple@L3
Format settings, BVOP : 2
Format settings, QPel : No
Format settings, GMC : No warppoints
Format settings, Matrix : Default (H.263)
Codec ID : DIVX
Codec ID/Info : Project Mayo
Codec ID/Hint : DivX 4
Duration : 2h 7mn
Bit rate : 794 Kbps
Width : 640 pixels
Height : 480 pixels
Display aspect ratio : 5:4
Original display aspect ratio : 4:3
Frame rate : 25.000 fps
Color space : YUV
Chroma subsampling : 4:2:0
Bit depth : 8 bits
Scan type : Progressive
Compression mode : Lossy
Bits/(Pixel*Frame) : 0.103
Stream size : 726 MiB (85%)
Writing library : XviD 1.0.0 Beta2.5 (UTC 2003-12-18)

Audio
ID : 1
Format : MPEG Audio
Format version : Version 1
Format profile : Layer 3
Mode : Joint stereo
Mode extension : MS Stereo
Codec ID : 55
Codec ID/Hint : MP3
Duration : 2h 7mn
Bit rate mode : Constant
Bit rate : 128 Kbps
Channel(s) : 2 channels
Sampling rate : 48.0 KHz
Compression mode : Lossy
Stream size : 117 MiB (14%)
Alignment : Aligned on interleaves
Interleave, duration : 40 ms (1.00 video frame)
Interleave, preload duration : 504 ms
ImagenConstantino.El.Grande.(1962)(Castellano).rar






_________________

_________________

Estos usuarios agradecierón al autor Nikita por el mensaje:
menaxio (Mar Sep 24, 2013 9:03 pm)
Valoración: 16.67%
 


Jue Mar 29, 2012 9:09 pm
Perfil  
Polizón
Polizón

Registrado: Dom Abr 01, 2012 7:58 pm
Mensajes: 4
Agradecido : 0 vez
Agradecimiento recibido: 0 vez
Nota 
Me encanta todo lo epico, medieval etc, gracias por compartir esta excelente peli, saludos.


Mié May 30, 2012 6:09 am
Perfil  
Polizón
Polizón

Registrado: Dom Abr 01, 2012 7:16 pm
Mensajes: 36
Agradecido : 5 veces
Agradecimiento recibido: 9 veces
Nota Re: Constantino el grande | 1960 | Castellano
Muchísimas gracias por la peli.

_________________

Estos usuarios agradecierón al autor malops por el mensaje:
Nikita (Mié Jul 31, 2013 11:09 pm)
Valoración: 16.67%
 


Dom Jul 28, 2013 9:10 pm
Perfil  
Polizón
Polizón

Registrado: Dom Ene 19, 2014 4:50 pm
Mensajes: 31
Agradecido : 28 veces
Agradecimiento recibido: 14 veces
Nota Re: Constantino el grande | 1960 | Castellano
muchas gracias. me encantan las películas antiguas de esta temática y similares.

_________________

Estos usuarios agradecierón al autor Fredelorzas por el mensaje:
Odinko (SagitarioXP) (Lun Ene 20, 2014 11:18 am)
Valoración: 16.67%
 


Dom Ene 19, 2014 10:46 pm
Perfil  
Mostrar mensajes previos:  Ordenar por  
Responder al tema   [ 4 mensajes ] 

Todos los horarios son UTC + 1 hora [ DST ]


¿Quién está conectado?

Usuarios navegando por este Foro: No hay usuarios registrados visitando el Foro y 1 invitado


No puede abrir nuevos temas en este Foro
No puede responder a temas en este Foro
No puede editar sus mensajes en este Foro
No puede borrar sus mensajes en este Foro

Saltar a:  
Powered by phpBB © 2000, 2002, 2005, 2007 phpBB Group.
Designed by STSoftware for PTF.


rss sindicación xml Anadir noticias de este foro a igoogle