Buscar temas sin respuesta | Ver temas activos Fecha actual Mar Jun 25, 2019 12:08 pm

Todos los horarios son UTC + 1 hora [ DST ]







Responder al tema  [ 3 mensajes ] 
 Mentiras Arriesgadas | 1994 | Dual-Esp-Ing+Subs-Esp-For-Ing 
Autor Mensaje
Capitán Pirata
Capitán Pirata
Avatar de Usuario

Registrado: Jue Feb 09, 2012 2:19 pm
Mensajes: 1949
Ubicación: España
Agradecido : 526 veces
Agradecimiento recibido: 451 veces
Nota Mentiras Arriesgadas | 1994 | Dual-Esp-Ing+Subs-Esp-For-Ing

Imagen


Mentiras Arriesgadas | 1994 | True Lies

Imagen

DURACIÓN: 141 Min.
PAÍS: Estados Unidos
DIRECTOR: James Cameron
GUIÓN: James Cameron (Guión original: Claude Zidi, Simon Michael, Didier Kaminka)
MÚSICA: Brad Fiedel
FOTOGRAFÍA: Russell Carpenter
REPARTO: Arnold Schwarzenegger, Jamie Lee Curtis, Tom Arnold, Bill Paxton, Charlton Heston, Tia Carrere, Art Malik, Eliza Dushku, Grant Heslov, Marshall Manesh
PRODUCTORA: 20th Century Fox / Lightstorm Entertainment
GÉNERO: Acción. Comedia | Espionaje. Remake
UPLOADER: Odinko

PREMIOS:
1994: Nominada al Oscar: Mejores efectos visuales
1994: Nominada BAFTA: Mejores efectos visuales

Imagen
El agente especial Harry Tasker (Arnold Schwarzenegger) mantiene una doble vida. Harry habla seis idiomas, conoce y domina todas las formas de contraespionaje y trabaja como espía internacional para Omega, una agencia gubernamental ultrasecreta encargada de la neutralización del terrorismo nuclear. Por razones de seguridad nacional, Harry oculta su verdadera profesión a su mujer Helen (Jamie Lee Curtis), que empieza a aburrirse del hombre gris y rutinario que, según ella cree, se dedica a vender ordenadores. Harry, que tiene recursos y valor para salvar a su país, quizá no sea capaz de salvar su matrimonio. Pero, cuando Helen descubre la verdadera profesión de su marido, excitada por la novedad, decide ayudarle a acabar con un comando integrista que planea un sangriento atentado. (FILMAFFINITY)

Imagen
Imagen

IDIOMA: Dual Castellano / Inglés con subtítulos en español, forzados e inglés

Imagen
MEDIAINFO: (Ver Spoiler)
Ocultar:
Mentiras.arriesgadas.(1994).(Dual-Esp-Ing+Subs-Esp-For-Ing).BDrip.1080p.x264-AC3.by.Odinko.(CineClasicoConecta2).mkv
Format : Matroska
Format version : Version 2
File size : 2.55 GiB
Duration : 2h 21mn
Overall bit rate : 2 571 Kbps
Encoded date : UTC 2013-04-29 23:09:23
Writing application : mkvmerge v4.4.0 ('Die Wiederkehr') realizado en Oct 31 2010 21:52:48
Writing library : libebml v1.0.0 + libmatroska v1.0.0

Video
ID : 1
Format : AVC
Format/Info : Advanced Video Codec
Format profile : High@L4.0
Format settings, CABAC : Yes
Format settings, ReFrames : 4 frames
Codec ID : V_MPEG4/ISO/AVC
Duration : 2h 21mn
Bit rate : 2 007 Kbps
Width : 1 920 pixels
Height : 816 pixels
Display aspect ratio : 2.35:1
Frame rate mode : Constant
Frame rate : 23.976 fps
Color space : YUV
Chroma subsampling : 4:2:0
Bit depth : 8 bits
Scan type : Progressive
Bits/(Pixel*Frame) : 0.053
Stream size : 1.99 GiB (78%)
Title : axis
Writing library : x264 core 128 r2216 198a7ea
Encoding settings : cabac=1 / ref=3 / deblock=1:-1:-1 / analyse=0x3:0x113 / me=hex / subme=7 / psy=1 / psy_rd=1.00:0.15 / mixed_ref=1 / me_range=16 / chroma_me=1 / trellis=1 / 8x8dct=1 / cqm=0 / deadzone=21,11 / fast_pskip=1 / chroma_qp_offset=-3 / threads=6 / lookahead_threads=1 / sliced_threads=0 / nr=0 / decimate=1 / interlaced=0 / bluray_compat=0 / constrained_intra=0 / bframes=3 / b_pyramid=2 / b_adapt=1 / b_bias=0 / direct=1 / weightb=1 / open_gop=0 / weightp=2 / keyint=250 / keyint_min=23 / scenecut=40 / intra_refresh=0 / rc_lookahead=40 / rc=crf / mbtree=1 / crf=27.0 / qcomp=0.60 / qpmin=0 / qpmax=69 / qpstep=4 / ip_ratio=1.40 / aq=1:1.00
Default : Yes
Forced : No

Audio #1
ID : 2
Format : AC-3
Format/Info : Audio Coding 3
Mode extension : CM (complete main)
Format settings, Endianness : Big
Codec ID : A_AC3
Duration : 2h 21mn
Bit rate mode : Constant
Bit rate : 256 Kbps
Channel(s) : 6 channels
Channel positions : Front: L C R, Side: L R, LFE
Sampling rate : 48.0 KHz
Bit depth : 16 bits
Compression mode : Lossy
Stream size : 260 MiB (10%)
Title : español
Default : Yes
Forced : No

Audio #2
ID : 3
Format : AC-3
Format/Info : Audio Coding 3
Mode extension : CM (complete main)
Format settings, Endianness : Big
Codec ID : A_AC3
Duration : 2h 21mn
Bit rate mode : Constant
Bit rate : 256 Kbps
Channel(s) : 6 channels
Channel positions : Front: L C R, Side: L R, LFE
Sampling rate : 48.0 KHz
Bit depth : 16 bits
Compression mode : Lossy
Stream size : 260 MiB (10%)
Title : english
Default : No
Forced : No

Text #1
ID : 4
Format : UTF-8
Codec ID : S_TEXT/UTF8
Codec ID/Info : UTF-8 Plain Text
Title : español forzado
Default : Yes
Forced : No

Text #2
ID : 5
Format : UTF-8
Codec ID : S_TEXT/UTF8
Codec ID/Info : UTF-8 Plain Text
Title : español
Default : No
Forced : No

Text #3
ID : 6
Format : UTF-8
Codec ID : S_TEXT/UTF8
Codec ID/Info : UTF-8 Plain Text
Title : english
Default : No
Forced : No
ImagenMentiras.arriesgadas.(1994).(Dual-Esp-Ing+Subs-Esp-For-Ing).(MKV).part1.rar
ImagenMentiras.arriesgadas.(1994).(Dual-Esp-Ing+Subs-Esp-For-Ing).(MKV).part2.rar
ImagenMentiras.arriesgadas.(1994).(Dual-Esp-Ing+Subs-Esp-For-Ing).(MKV).part3.rar
ImagenMentiras.arriesgadas.(1994).(Dual-Esp-Ing+Subs-Esp-For-Ing).(MKV).part4.rar






_________________

Imagen



Última edición por Odinko (SagitarioXP) el Dom Jul 21, 2013 4:47 am, editado 5 veces en total

Sin motivo



Mar Abr 02, 2013 11:36 pm
Perfil   WWW
Tripulante
Tripulante
Avatar de Usuario

Registrado: Dom May 27, 2012 2:57 pm
Mensajes: 229
Agradecido : 28 veces
Agradecimiento recibido: 41 veces
Nota Re: Mentiras Arriesgadas [1994] [Castellano]
He notado fallos de imagen sobretodo en las zonas oscuras de pantalla, puede ser de mi televisor o que no se ha descargado bien, no lo sé, el sonido va perfecto, de todos modos se ve aceptable.

Si se pudiera subir con mejor calidad también lo agradecería.

Muchas gracias por el trabajo y las molestias, saludos. (feliz)


Sab Jul 06, 2013 6:51 pm
Perfil  
Capitán Pirata
Capitán Pirata
Avatar de Usuario

Registrado: Jue Feb 09, 2012 2:19 pm
Mensajes: 1949
Ubicación: España
Agradecido : 526 veces
Agradecimiento recibido: 451 veces
Nota Re: Mentiras Arriesgadas [1994] [Castellano]
Pronto la tendrás en buena calidad, yo mismo me encargaré de montar el MKV :)
Gracias por la observación musterkow.
Un abrazo.

_________________

Imagen


Dom Jul 07, 2013 9:23 pm
Perfil   WWW
Mostrar mensajes previos:  Ordenar por  
Responder al tema   [ 3 mensajes ] 

Todos los horarios son UTC + 1 hora [ DST ]


¿Quién está conectado?

Usuarios navegando por este Foro: No hay usuarios registrados visitando el Foro y 1 invitado


No puede abrir nuevos temas en este Foro
No puede responder a temas en este Foro
No puede editar sus mensajes en este Foro
No puede borrar sus mensajes en este Foro

Saltar a:  

Powered by phpBB © 2000, 2002, 2005, 2007 phpBB Group.
Designed by STSoftware for PTF.


rss sindicación xml Anadir noticias de este foro a igoogle