Buscar temas sin respuesta | Ver temas activos Fecha actual Mar Jun 25, 2019 12:04 pm

Todos los horarios son UTC + 1 hora [ DST ]







Responder al tema  [ 4 mensajes ] 
 Éxodo | 1960 | Dual-Esp-Ing+Subs-Esp-Ing 
Autor Mensaje
Capitán Pirata
Capitán Pirata
Avatar de Usuario

Registrado: Jue Feb 09, 2012 2:19 pm
Mensajes: 1949
Ubicación: España
Agradecido : 526 veces
Agradecimiento recibido: 451 veces
Nota Éxodo | 1960 | Dual-Esp-Ing+Subs-Esp-Ing

Imagen


Éxodo | 1960

Imagen

DURACIÓN: 213 min.
PAÍS: Estados Unidos
DIRECTOR: Otto Preminger
GUIÓN: Dalton Trumbo (Novela: Leon Uris)
MÚSICA: Ernest Gold
FOTOGRAFÍA: Sam Leavitt
REPARTO: Paul Newman, Eva Marie Saint, Ralph Richardson, Peter Lawford, Lee J. Cobb, Sal Mineo, John Derek, Hugh Griffith, Gregory Ratoff, Jill Haworth, Marius Goring, Alexandra Stewart, Michael Wager, Martin Benson, Betty Walker, John Crawford
PRODUCTORA: United Artists
GÉNERO: Drama | Histórico. Cine épico
UPLOADER: Odinko
1960: Oscar: Mejor banda sonora drama o comedia. 3 nominaciones

Imagen
Superproducción sobre el nacimiento del estado de Israel (1948). Seiscientos once judíos que han sobrevivido a los campos de exterminio nazis, abandonan Alemania en un barco (el "Estrella de David") que atraca en Chipre. Después de superar grandes dificultades, logran al fin zarpar de la isla en el "Éxodo", barco de carga con destino a Palestina. El objetivo de los refugiados es crear el estado de Israel. Akiva, un líder fanático, considera que el terrorismo es la única vía para construir la nación, pero su hermano Barek y su sobrino Ari Ben Canaan (Paul Newman) no son de la misma opinión. (FILMAFFINITY)
"Un clásico con reparto espectacular"

Imagen
Imagen

IDIOMA: Dual Castellano / Inglés con subtítulos en español e inglés

Imagen
MEDIAINFO: (Ver Spoiler)
Ocultar:
\Exodo.(1960).(Dual-Esp-Ing+Subs-Esp-Ing).BDRip.HD.720p.AVC-AC3.by.Odinko.(CineClasicoConecta2).mkv
Format : Matroska
Format version : Version 4 / Version 2
File size : 3.23 GiB
Duration : 3h 19mn
Overall bit rate : 2 323 Kbps
Movie name : Exodo (1960) - MKV creado por Odinko de Cine Clásico Conecta2
Encoded date : UTC 2013-08-04 03:45:05
Writing application : mkvmerge v6.3.0 ('You can't stop me!') built on Jun 27 2013 22:06:07
Writing library : libebml v1.3.0 + libmatroska v1.4.0

Video
ID : 1
Format : AVC
Format/Info : Advanced Video Codec
Format profile : High@L4.1
Format settings, CABAC : Yes
Format settings, ReFrames : 4 frames
Codec ID : V_MPEG4/ISO/AVC
Duration : 3h 19mn
Bit rate : 2 000 Kbps
Width : 1 280 pixels
Height : 544 pixels
Display aspect ratio : 2.35:1
Frame rate mode : Constant
Frame rate : 25.000 fps
Color space : YUV
Chroma subsampling : 4:2:0
Bit depth : 8 bits
Scan type : Progressive
Bits/(Pixel*Frame) : 0.115
Stream size : 2.72 GiB (84%)
Title : Exodo - 1960, Por Odinko de Clásicos Conecta2
Writing library : x264 core 116 r2074 2641b9e
Encoding settings : cabac=1 / ref=1 / deblock=1:0:0 / analyse=0x3:0x113 / me=hex / subme=7 / psy=1 / psy_rd=2.00:1.00 / mixed_ref=0 / me_range=16 / chroma_me=1 / trellis=2 / 8x8dct=1 / cqm=0 / deadzone=21,11 / fast_pskip=0 / chroma_qp_offset=-4 / threads=3 / sliced_threads=0 / nr=50 / decimate=1 / interlaced=0 / bluray_compat=0 / constrained_intra=0 / bframes=3 / b_pyramid=2 / b_adapt=1 / b_bias=0 / direct=3 / weightb=1 / open_gop=0 / weightp=2 / keyint=250 / keyint_min=25 / scenecut=40 / intra_refresh=0 / rc_lookahead=50 / rc=2pass / mbtree=1 / bitrate=2000 / ratetol=2.0 / qcomp=0.60 / qpmin=10 / qpmax=51 / qpstep=4 / cplxblur=20.0 / qblur=0.5 / ip_ratio=1.40 / aq=1:1.00
Language : English
Default : Yes
Forced : No

Audio #1
ID : 2
Format : AC-3
Format/Info : Audio Coding 3
Mode extension : CM (complete main)
Format settings, Endianness : Big
Codec ID : A_AC3
Duration : 3h 19mn
Bit rate mode : Constant
Bit rate : 160 Kbps
Channel(s) : 2 channels
Channel positions : Front: L R
Sampling rate : 48.0 KHz
Bit depth : 16 bits
Compression mode : Lossy
Stream size : 228 MiB (7%)
Title : Castellano AC3
Language : Spanish
Default : Yes
Forced : No

Audio #2
ID : 3
Format : AC-3
Format/Info : Audio Coding 3
Mode extension : CM (complete main)
Format settings, Endianness : Big
Codec ID : A_AC3
Duration : 3h 19mn
Bit rate mode : Constant
Bit rate : 160 Kbps
Channel(s) : 2 channels
Channel positions : Front: L R
Sampling rate : 48.0 KHz
Bit depth : 16 bits
Compression mode : Lossy
Stream size : 228 MiB (7%)
Title : Inglés AC3
Language : English
Default : No
Forced : No

Text #1
ID : 4
Format : UTF-8
Codec ID : S_TEXT/UTF8
Codec ID/Info : UTF-8 Plain Text
Title : Español
Language : Spanish
Default : Yes
Forced : No

Text #2
ID : 5
Format : UTF-8
Codec ID : S_TEXT/UTF8
Codec ID/Info : UTF-8 Plain Text
Title : Inglés
Language : English
Default : No
Forced : No

Menu
00:00:00.000 : en:Chapter 1
00:10:00.000 : en:Chapter 2
00:20:00.000 : en:Chapter 3
00:30:00.000 : en:Chapter 4
00:40:00.000 : en:Chapter 5
00:50:00.000 : en:Chapter 6
01:00:00.000 : en:Chapter 7
01:05:00.000 : en:Chapter 8
01:10:00.000 : en:Chapter 9
01:15:00.000 : en:Chapter 10
01:20:00.000 : en:Chapter 20

ImagenExodo.(1960).(Dual-Esp-Ing+Subs-Esp-Ing).(MKV).(HD).part1.rar
ImagenExodo.(1960).(Dual-Esp-Ing+Subs-Esp-Ing).(MKV).(HD).part2.rar
ImagenExodo.(1960).(Dual-Esp-Ing+Subs-Esp-Ing).(MKV).(HD).part3.rar
ImagenExodo.(1960).(Dual-Esp-Ing+Subs-Esp-Ing).(MKV).(HD).part4.rar
ImagenExodo.(1960).(Dual-Esp-Ing+Subs-Esp-Ing).(MKV).(HD).part5.rar







_________________

Imagen


_________________

Estos usuarios agradecierón al autor Odinko (SagitarioXP) por el mensaje (total 2):
FELIPEPENIL (Vie Ago 30, 2013 6:46 pm) • jomelica (Mié Ago 07, 2013 9:13 am)
Valoración: 33.33%
 


Mar Ago 06, 2013 5:25 pm
Perfil   WWW
Grumete
Grumete
Avatar de Usuario

Registrado: Sab Abr 13, 2013 2:51 am
Mensajes: 132
Agradecido : 66 veces
Agradecimiento recibido: 55 veces
Nota Re: Éxodo | 1960 | Dual-Esp-Ing+Subs-Esp-Ing
¡Gracias por este ripeo de lujo!


Mar Ago 06, 2013 8:57 pm
Perfil  
Capitán Pirata
Capitán Pirata
Avatar de Usuario

Registrado: Jue Feb 09, 2012 2:19 pm
Mensajes: 1949
Ubicación: España
Agradecido : 526 veces
Agradecimiento recibido: 451 veces
Nota Re: Éxodo | 1960 | Dual-Esp-Ing+Subs-Esp-Ing
A ti amigo Spockester por el comentario :)

Que la disfrutes :palomitas:

_________________

Imagen


Mar Ago 06, 2013 10:01 pm
Perfil   WWW
Capitán Pirata
Capitán Pirata
Avatar de Usuario

Registrado: Jue Feb 09, 2012 2:19 pm
Mensajes: 1949
Ubicación: España
Agradecido : 526 veces
Agradecimiento recibido: 451 veces
Nota Re: Éxodo | 1960 | Dual-Esp-Ing+Subs-Esp-Ing
A ti amigo Spockester por el comentario :)

Que la disfrutes :palomitas:

_________________

Imagen


Mar Ago 06, 2013 10:01 pm
Perfil   WWW
Mostrar mensajes previos:  Ordenar por  
Responder al tema   [ 4 mensajes ] 

Todos los horarios son UTC + 1 hora [ DST ]


¿Quién está conectado?

Usuarios navegando por este Foro: No hay usuarios registrados visitando el Foro y 1 invitado


No puede abrir nuevos temas en este Foro
No puede responder a temas en este Foro
No puede editar sus mensajes en este Foro
No puede borrar sus mensajes en este Foro

Saltar a:  

Powered by phpBB © 2000, 2002, 2005, 2007 phpBB Group.
Designed by STSoftware for PTF.


rss sindicación xml Anadir noticias de este foro a igoogle