Buscar temas sin respuesta | Ver temas activos Fecha actual Jue Ene 17, 2019 9:29 am

Todos los horarios son UTC + 1 hora







Responder al tema  [ 3 mensajes ] 
 En honor a la verdad | 1996 | Dual-Esp-Ing+Subs-Esp 
Autor Mensaje
Capitán Pirata
Capitán Pirata
Avatar de Usuario

Registrado: Jue Feb 09, 2012 1:19 pm
Mensajes: 1949
Ubicación: España
Agradecido : 526 veces
Agradecimiento recibido: 451 veces
Nota En honor a la verdad | 1996 | Dual-Esp-Ing+Subs-Esp
Imagen


En honor a la verdad | 1996 | Courage Under Fire

Imagen

DURACIÓN: 116 min.
PAÍS: Estados Unidos
DIRECTOR: Edward Zwick
GUIÓN: Patrick Sheane Duncan
MÚSICA: James Horner
FOTOGRAFÍA: Roger Deakins
REPARTO: Denzel Washington, Meg Ryan, Lou Diamond Phillips, Scott Glenn, Michael Moriarty, Matt Damon, Seth Gilliam, Bronson Pinchot
PRODUCTORA: Fox 2000 Pictures
GÉNERO: Bélico. Drama | Guerra del Golfo. Ejército
UPLOADER: Odinko

Imagen

Guerra de Irak. Después de destruir accidentalmente uno de sus propios tanques, el teniente coronel Nathan Serling (Denzel Washington) vuelve a casa. El Ejército oculta el incidente y asigna a Serling la misión de investigar al capitán Karen Walden (Meg Ryan), una piloto de helicóptero que, a título póstumo, está a punto de convertirse en la primera mujer héroe de guerra que recibe la medalla al honor por una acción en combate. Ésta fue la primera película que se hizo en Hollywood sobre la I Guerra del Golfo.

Imagen
Imagen

IDIOMA: Dual Castellano / Inglés con subtítulos en español

Imagen
MEDIAINFO: (Ver Spoiler)
Ocultar:
En honor a la verdad (1996).(Dual-Esp-Ing+Subs-Esp).Dvd-Rip.Xvid.Mp3.by.Odinko.(CineClasicoConecta2).mkv
Format : Matroska
Format version : Version 2
File size : 1.34 GiB
Duration : 1h 51mn
Overall bit rate mode : Variable
Overall bit rate : 1 710 Kbps
Movie name : En honor a la verdad (1996) - MKV creado por Odinko de Cine Clásico Conecta2
Encoded date : UTC 2013-06-20 07:27:29
Writing application : mkvmerge v5.8.0 ('No Sleep / Pillow') built on Sep 2 2012 15:37:04
Writing library : libebml v1.2.3 + libmatroska v1.3.0

Video
ID : 1
Format : MPEG-4 Visual
Format profile : Simple@L3
Format settings, BVOP : Yes
Format settings, QPel : No
Format settings, GMC : No warppoints
Format settings, Matrix : Default (H.263)
Codec ID : V_MS/VFW/FOURCC / XVID
Codec ID/Hint : XviD
Duration : 1h 51mn
Bit rate : 1 164 Kbps
Width : 640 pixels
Height : 352 pixels
Display aspect ratio : 16:9
Frame rate mode : Constant
Frame rate : 25.000 fps
Color space : YUV
Chroma subsampling : 4:2:0
Bit depth : 8 bits
Scan type : Progressive
Compression mode : Lossy
Bits/(Pixel*Frame) : 0.207
Stream size : 931 MiB (68%)
Writing library : XviD 1.0.0 Beta2.5 (UTC 2003-12-18)
Default : Yes
Forced : No

Audio #1
ID : 2
Format : AC-3
Format/Info : Audio Coding 3
Mode extension : CM (complete main)
Format settings, Endianness : Big
Muxing mode : Header stripping
Codec ID : A_AC3
Duration : 1h 51mn
Bit rate mode : Constant
Bit rate : 384 Kbps
Channel(s) : 6 channels
Channel positions : Front: L C R, Side: L R, LFE
Sampling rate : 48.0 KHz
Bit depth : 16 bits
Compression mode : Lossy
Stream size : 307 MiB (22%)
Title : Castellano
Language : Spanish
Default : Yes
Forced : No

Audio #2
ID : 3
Format : MPEG Audio
Format version : Version 1
Format profile : Layer 3
Mode : Joint stereo
Mode extension : MS Stereo
Muxing mode : Header stripping
Codec ID : A_MPEG/L3
Codec ID/Hint : MP3
Duration : 1h 54mn
Bit rate mode : Variable
Bit rate : 128 Kbps
Channel(s) : 2 channels
Sampling rate : 48.0 KHz
Compression mode : Lossy
Stream size : 105 MiB (8%)
Title : Inglés (V.O.)
Writing library : LAME3.96
Encoding settings : -m j -V 1 -q 2 -lowpass 19.5 --abr 128
Language : English
Default : No
Forced : No

Text
ID : 4
Format : UTF-8
Codec ID : S_TEXT/UTF8
Codec ID/Info : UTF-8 Plain Text
Title : Español
Language : Spanish
Default : Yes
Forced : No

Menu
00:00:00.000 : en:Chapter 01
00:15:00.000 : en:Chapter 02
00:30:00.000 : en:Chapter 03
00:45:00.000 : en:Chapter 04
01:00:00.000 : en:Chapter 05
01:15:00.000 : en:Chapter 06
01:20:00.000 : en:Chapter 07
01:30:00.000 : en:Chapter 08
01:40:00.000 : en:Chapter 09
01:50:00.000 : en:Chapter 10
02:00:00.000 : en:Chapter 20
En honor a la verdad (1996).(Dual-Esp-Ing+Subs-Esp).(MKV).part1.rar
En honor a la verdad (1996).(Dual-Esp-Ing+Subs-Esp).(MKV).part2.rar






_________________


_________________

Estos usuarios agradecierón al autor Odinko (SagitarioXP) por el mensaje (total 2):
menaxio (Mié Sep 18, 2013 1:52 am) • furtaperas (Vie Sep 13, 2013 9:25 am)
Valoración: 33.33%
 


Dom Nov 04, 2012 2:56 pm
Perfil   WWW
Polizón
Polizón
Avatar de Usuario

Registrado: Mar Mar 05, 2013 1:05 pm
Mensajes: 4
Agradecido : 0 vez
Agradecimiento recibido: 0 vez
Nota Re: En honor a la verdad [1996] [Castellano]
¿Podrías resubir este archivo? por favor.


Mié Jun 19, 2013 12:47 pm
Perfil  
Capitán Pirata
Capitán Pirata
Avatar de Usuario

Registrado: Jue Feb 09, 2012 1:19 pm
Mensajes: 1949
Ubicación: España
Agradecido : 526 veces
Agradecimiento recibido: 451 veces
Nota Re: En honor a la verdad | 1996 | Dual-Esp-Ing+Subs-Esp
Resubida kkliki. que la disfrutes :)

_________________

Imagen


Vie Jun 21, 2013 4:57 pm
Perfil   WWW
Mostrar mensajes previos:  Ordenar por  
Responder al tema   [ 3 mensajes ] 

Todos los horarios son UTC + 1 hora


¿Quién está conectado?

Usuarios navegando por este Foro: No hay usuarios registrados visitando el Foro y 1 invitado


No puede abrir nuevos temas en este Foro
No puede responder a temas en este Foro
No puede editar sus mensajes en este Foro
No puede borrar sus mensajes en este Foro

Saltar a:  

Powered by phpBB © 2000, 2002, 2005, 2007 phpBB Group.
Designed by STSoftware for PTF.


rss sindicación xml Anadir noticias de este foro a igoogle