Buscar temas sin respuesta | Ver temas activos Fecha actual Mar Jun 25, 2019 12:34 pm

Todos los horarios son UTC + 1 hora [ DST ]







Responder al tema  [ 3 mensajes ] 
 Buscando mi destino | 1969 | Dual-Esp-Ing+Subs-Esp 
Autor Mensaje
Mariner@
Mariner@
Avatar de Usuario

Registrado: Jue Feb 09, 2012 9:34 pm
Mensajes: 543
Agradecido : 57 veces
Agradecimiento recibido: 148 veces
Nota Buscando mi destino | 1969 | Dual-Esp-Ing+Subs-Esp

Imagen

Imagen

TÍTULO ORIGINAL: Easy Rider
AÑO: 1969
DURACIÓN: 94 Min.
PAÍS: Estados Unidos
DIRECTOR: Dennis Hopper
GUIÓN: Terry Southern, Peter Fonda, Dennis Hopper
MÚSICA: Steppenwolf, Mars Bonfire, Jimi Hendrix, The Byrds, Roger McGuinn
FOTOGRAFÍA: Laszlo Kovacs
REPARTO: Peter Fonda, Dennis Hopper, Jack Nicholson, Karen Black, Antonio Mendoza, Phil Spector, Luana Anders, Toni Basil, Mac Mashourian, Warren Finnerty
PRODUCTORA: Columbia Pictures / Pando Company / Raybert Productions
PREMIOS:
1969: 2 nominaciones al Oscar: Mejor actor de reparto (Nicholson), guión
1969: Festival de Cannes: Mejor ópera prima
GÉNERO: Drama | Road Movie. Película de culto. Motos
UPLOADER: Odinko

Imagen
Imagen

Imagen
Dos jóvenes motoristas de Los Ángeles emprenden un viaje hacia Nueva Orleáns. Cruzan todo el país con la intención de descubrir América. Después de vender cocaína a un hombre de Los Ángeles, Billy y Wiatt (alias Capitán América) asisten a la fiesta del Mardî Gras. Pronto reanudan el viaje y se van encontrando con personajes de lo más estrafalario, entre ellos un ranchero y su familia, o un autoestopista de una comuna hippie, antes de ser arrestados en un pueblecito por parar sin un permiso. Su compañero de celda, un abogado borracho, les hace un gran favor sacándoles de la cárcel y luego decide unirse a ellos. (FILMAFFINITY)

IDIOMA: Dual Castellano / Inglés con subtítulos en español

Imagen
MEDIAINFO: (Ver Spoiler)
Ocultar:
Buscando mi destino.(Easy Rider ).(1969).(Dual-Esp-Ing+Subs-Esp).XviD.Mp3.by.Odinko.CineClasicoConecta2.mkv
Format : Matroska
Format version : Version 2
File size : 1.34 GiB
Duration : 1h 31mn
Overall bit rate mode : Variable
Overall bit rate : 2 099 Kbps
Movie name : Buscando mi destino- Easy Rider (1969) - MKV creado por Odinko de CineClásicoConecta2
Encoded date : UTC 2013-05-21 15:53:15
Writing application : mkvmerge v5.8.0 ('No Sleep / Pillow') built on Sep 2 2012 15:37:04
Writing library : libebml v1.2.3 + libmatroska v1.3.0

Video
ID : 1
Format : MPEG-4 Visual
Format profile : Advanced Simple@L5
Format settings, BVOP : Yes
Format settings, QPel : No
Format settings, GMC : No warppoints
Format settings, Matrix : Default (MPEG)
Codec ID : V_MS/VFW/FOURCC / XVID
Codec ID/Hint : XviD
Duration : 1h 31mn
Bit rate : 1 807 Kbps
Width : 688 pixels
Height : 368 pixels
Display aspect ratio : 1.85:1
Frame rate mode : Constant
Frame rate : 25.000 fps
Color space : YUV
Chroma subsampling : 4:2:0
Bit depth : 8 bits
Scan type : Progressive
Compression mode : Lossy
Bits/(Pixel*Frame) : 0.286
Stream size : 1.16 GiB (86%)
Writing library : XviD 1.1.2 (UTC 2006-11-01)
Default : Yes
Forced : No

Audio #1
ID : 2
Format : MPEG Audio
Format version : Version 1
Format profile : Layer 3
Mode : Joint stereo
Mode extension : MS Stereo
Muxing mode : Header stripping
Codec ID : A_MPEG/L3
Codec ID/Hint : MP3
Duration : 1h 30mn
Bit rate mode : Variable
Bit rate : 128 Kbps
Channel(s) : 2 channels
Sampling rate : 48.0 KHz
Compression mode : Lossy
Stream size : 82.6 MiB (6%)
Title : Castellano
Writing library : LAME3.90.
Encoding settings : -m j -V 4 -q 2 -lowpass 17.6 --abr 128
Language : Spanish
Default : Yes
Forced : No

Audio #2
ID : 3
Format : MPEG Audio
Format version : Version 1
Format profile : Layer 3
Mode : Joint stereo
Mode extension : MS Stereo
Muxing mode : Header stripping
Codec ID : A_MPEG/L3
Codec ID/Hint : MP3
Duration : 1h 31mn
Bit rate mode : Variable
Bit rate : 122 Kbps
Nominal bit rate : 128 Kbps
Channel(s) : 2 channels
Sampling rate : 48.0 KHz
Compression mode : Lossy
Stream size : 79.8 MiB (6%)
Title : Inglés (V.O)
Writing library : LAME3.90.
Encoding settings : -m j -V 4 -q 2 -lowpass 17.6 --abr 128
Language : English
Default : No
Forced : No

Text
ID : 4
Format : UTF-8
Codec ID : S_TEXT/UTF8
Codec ID/Info : UTF-8 Plain Text
Title : Castellano
Language : Spanish
Default : Yes
Forced : No
Buscando mi destino.(1962).(Dual-Esp-Ing+Subs-Esp).(MKV).part1.rar
Buscando mi destino.(1962).(Dual-Esp-Ing+Subs-Esp).(MKV).part2.rar





Descargar con eMule:
Buscando mi destino.(Easy Rider ).(1969).(Dual-Esp-Ing+Subs-Esp).XviD.Mp3.by.Odinko.CineClasicoConecta2.mkv



_________________



Jue Mar 08, 2012 9:18 pm
Perfil  
Polizón
Polizón

Registrado: Mar May 14, 2013 5:37 pm
Mensajes: 1
Agradecido : 0 vez
Agradecimiento recibido: 0 vez
Nota Re: Buscando mi destino [1969] [Castellano y V.O.S.E]
gracias Nikita por tu aporte....realmente un peliculón.Lo único desagradable es que el enlace de la versión Vose uploaded lo marca como error....


Lun May 20, 2013 10:16 am
Perfil  
Capitán Pirata
Capitán Pirata
Avatar de Usuario

Registrado: Jue Feb 09, 2012 2:19 pm
Mensajes: 1949
Ubicación: España
Agradecido : 526 veces
Agradecimiento recibido: 451 veces
Nota Buscando mi destino en MKV con subtítulos en español
fabiusmil100, estoy bajando la versión "Dual" para montar el MKV con los subtítulos en español y a ser posible también en inglés.
Saludos amigo.

_________________

Imagen


Lun May 20, 2013 3:50 pm
Perfil   WWW
Mostrar mensajes previos:  Ordenar por  
Responder al tema   [ 3 mensajes ] 

Todos los horarios son UTC + 1 hora [ DST ]


¿Quién está conectado?

Usuarios navegando por este Foro: No hay usuarios registrados visitando el Foro y 1 invitado


No puede abrir nuevos temas en este Foro
No puede responder a temas en este Foro
No puede editar sus mensajes en este Foro
No puede borrar sus mensajes en este Foro

Saltar a:  

Powered by phpBB © 2000, 2002, 2005, 2007 phpBB Group.
Designed by STSoftware for PTF.


rss sindicación xml Anadir noticias de este foro a igoogle