Buscar temas sin respuesta | Ver temas activos Fecha actual Mar Jun 25, 2019 11:43 am

Todos los horarios son UTC + 1 hora [ DST ]







Responder al tema  [ 3 mensajes ] 
 Chantaje en Broadway | 1957 | Dual-Esp-Ing+Subs-Esp 
Autor Mensaje
Capitán Pirata
Capitán Pirata
Avatar de Usuario

Registrado: Jue Feb 09, 2012 2:19 pm
Mensajes: 1949
Ubicación: España
Agradecido : 526 veces
Agradecimiento recibido: 451 veces
Nota Chantaje en Broadway | 1957 | Dual-Esp-Ing+Subs-Esp

Imagen


El dulce sabor del éxito (Chantaje en Broadway) | 1957 | Sweet Smell of Success

Imagen

DURACIÓN: 96 min.
PAÍS: Estados Unidos
DIRECTOR: Alexander MacKendrick
GUIÓN: Ernest Lehman & Clifford Odets
MÚSICA: Elmer Bernstein
FOTOGRAFÍA: James Wong Howe (B&W)
REPARTO: Burt Lancaster, Tony Curtis, Susan Harrison, Martin Milner, Sam Levene, Barbara Nichols, Emile Meyer
PRODUCTORA: MGM
GÉNERO: Drama, Periodismo
UPLOADER: Odinko

Imagen
El director de un poderoso periódico de New York, un hombre despótico y megalómano, no acepta las relaciones de su hermana con un músico de jazz, a quien no considera el hombre apropiado para ella.

Imagen
Imagen

IDIOMA: Dual Castellano / Inglés con subtítulos en español

Imagen
MEDIAINFO: (Ver Spoiler)
Ocultar:
El dulce sabor del exito (Chantaje en Broadway)(1957).(Dual-Esp-Ing+Subs-Esp).XviD.Mp3.by.Odinko.CineClasicoConecta2.mkv
Format : Matroska
Format version : Version 4 / Version 2
File size : 994 MiB
Duration : 1h 32mn
Overall bit rate : 1 500 Kbps
Movie name : El dulce sabor del éxito (Chantaje en Broadway) (1957) MKV creado por Odinko de Cine Clásico Conecta2
Encoded date : UTC 2013-07-24 00:06:19
Writing application : mkvmerge v6.3.0 ('You can't stop me!') built on Jun 27 2013 22:06:07
Writing library : libebml v1.3.0 + libmatroska v1.4.0

Video
ID : 1
Format : MPEG-4 Visual
Format profile : Advanced Simple@L5
Format settings, BVOP : Yes
Format settings, QPel : No
Format settings, GMC : No warppoints
Format settings, Matrix : Default (MPEG)
Codec ID : V_MS/VFW/FOURCC / XVID
Codec ID/Hint : XviD
Duration : 1h 32mn
Bit rate : 1 214 Kbps
Width : 656 pixels
Height : 384 pixels
Display aspect ratio : 1.708
Frame rate mode : Constant
Frame rate : 25.000 fps
Color space : YUV
Chroma subsampling : 4:2:0
Bit depth : 8 bits
Scan type : Progressive
Compression mode : Lossy
Bits/(Pixel*Frame) : 0.193
Stream size : 804 MiB (81%)
Writing library : XviD 1.1.2 (UTC 2006-11-01)
Default : Yes
Forced : No

Audio #1
ID : 2
Format : MPEG Audio
Format version : Version 1
Format profile : Layer 3
Mode : Joint stereo
Mode extension : MS Stereo
Codec ID : A_MPEG/L3
Codec ID/Hint : MP3
Duration : 1h 32mn
Bit rate mode : Constant
Bit rate : 128 Kbps
Channel(s) : 2 channels
Sampling rate : 48.0 KHz
Compression mode : Lossy
Stream size : 84.8 MiB (9%)
Title : Castellano
Language : Spanish
Default : Yes
Forced : No

Audio #2
ID : 3
Format : MPEG Audio
Format version : Version 1
Format profile : Layer 3
Mode : Joint stereo
Codec ID : A_MPEG/L3
Codec ID/Hint : MP3
Duration : 1h 32mn
Bit rate mode : Constant
Bit rate : 128 Kbps
Channel(s) : 2 channels
Sampling rate : 48.0 KHz
Compression mode : Lossy
Stream size : 84.8 MiB (9%)
Title : Ingles
Language : English
Default : No
Forced : No

Text
ID : 4
Format : UTF-8
Codec ID : S_TEXT/UTF8
Codec ID/Info : UTF-8 Plain Text
Title : Castellano
Language : Spanish
Default : Yes
Forced : No

Menu
00:00:00.000 : en:Chapter 1
00:10:00.000 : en:Chapter 2
00:20:00.000 : en:Chapter 3
00:30:00.000 : en:Chapter 4
00:40:00.000 : en:Chapter 5
00:50:00.000 : en:Chapter 6
01:00:00.000 : en:Chapter 7
01:05:00.000 : en:Chapter 8
01:10:00.000 : en:Chapter 9
01:15:00.000 : en:Chapter 10
01:20:00.000 : en:Chapter 20
ImagenEl dulce sabor del exito (Chantaje en Broadway)(1957).(Dual-Esp-Ing+Subs-Esp).(MKV).part1.rar
ImagenEl dulce sabor del exito (Chantaje en Broadway)(1957).(Dual-Esp-Ing+Subs-Esp).(MKV).part2.rar






_________________

Imagen


_________________

Estos usuarios agradecierón al autor Odinko (SagitarioXP) por el mensaje (total 2):
jomelica (Mié Oct 09, 2013 9:15 pm) • jddlameyer (Mié Sep 04, 2013 9:49 am)
Valoración: 33.33%
 


Mar Jul 10, 2012 12:24 am
Perfil   WWW
Bucaner@
Bucaner@
Avatar de Usuario

Registrado: Dom Sep 16, 2012 11:40 am
Mensajes: 884
Agradecido : 82 veces
Agradecimiento recibido: 257 veces
Nota Re: Chantaje en Broadway | 1957 | Dual-Esp-Ing+Subs-Esp
Aqui la pongo con enlaces de Sockshare, por si le interesara a alguien




Imagen

Imagen




Imagen

Ocultar:

General
Nombre completo : C:\Users\Jorge\Desktop\Chantaje en broadway\Chantaje en Broadway\Chantaje en Broadway.avi
Formato : AVI
Formato/Info : Audio Video Interleave
Tamaño del archivo : 800MB
Duración : 1h 32min.
Tasa de bits total : 1 208Kbps
Aplicación de codifición : VirtualDubMod 1.5.4.1 (build 2178/release)
Librería de codificación : VirtualDubMod build 2178/release

Video
ID : 0
Formato : MPEG-4 Visual
Ajustes del formato, BVOP : No
Ajustes del formato, Qpel : No
Ajustes del formato, GMC : No warppoints
Ajustes del formato, Matrix : Default (H.263)
ID Códec : DX50
ID Códec/Pista : DivX 5
Duración : 1h 32min.
Tasa de bits : 942Kbps
Ancho : 640pixeles
Alto : 384pixeles
Relación de aspecto : 1,667
Velocidad de cuadro : 25,000fps
ColorSpace : YUV
ChromaSubsampling : 4:2:0
BitDepth/String : 8bits
Tipo de exploración : Progresivo
Bits/(Pixel*cuadro) : 0.153
Tamaño de pista : 624MB (78%)
Librería de codificación : DivX 5.1.0 (UTC 2003-09-02)

Audio #1
ID : 1
Formato : MPEG Audio
Formato de la versión : Version 1
Formato del perfil : Layer 3
Format_Settings_Mode : Joint stereo
Format_Settings_ModeExtension : MS Stereo
ID Códec : 55
ID Códec/Pista : MP3
Duración : 1h 32min.
Tipo de tasa de bits : Constante
Tasa de bits : 128Kbps
Canal(es) : 2canales
Velocidad de muestreo : 48,0KHz
Tamaño de pista : 84,8MB (11%)
Alineación : Alineación entrelazado
Entrelazado, duración : 80 ms (2,00fotogramas de video)
Entrelazado, duración de precarg : 504 ms
Idioma : Español

Audio #2
ID : 2
Formato : MPEG Audio
Formato de la versión : Version 1
Formato del perfil : Layer 3
Format_Settings_Mode : Joint stereo
ID Códec : 55
ID Códec/Pista : MP3
Duración : 1h 32min.
Tipo de tasa de bits : Constante
Tasa de bits : 128Kbps
Canal(es) : 2canales
Velocidad de muestreo : 48,0KHz
Tamaño de pista : 84,8MB (11%)
Alineación : Alineación entrelazado
Entrelazado, duración : 80 ms (2,00fotogramas de video)
Entrelazado, duración de precarg : 504 ms
Idioma : Inglés



Imagen





Imagen

Imagen

Imagen

_________________
Imagen

_________________

Estos usuarios agradecierón al autor jomelica por el mensaje:
Odinko (SagitarioXP) (Jue Ene 09, 2014 1:53 am)
Valoración: 16.67%
 


Mié Oct 09, 2013 9:17 pm
Perfil  
Grumete
Grumete
Avatar de Usuario

Registrado: Sab Abr 13, 2013 2:51 am
Mensajes: 132
Agradecido : 66 veces
Agradecimiento recibido: 55 veces
Nota Re: Chantaje en Broadway | 1957 | Dual-Esp-Ing+Subs-Esp
Gracias por el aporte.

Muy buena película, se la recomiendo a todo el mundo.

_________________

Estos usuarios agradecierón al autor Spockester por el mensaje (total 2):
Odinko (SagitarioXP) (Mar Oct 15, 2013 5:19 pm) • jomelica (Lun Oct 14, 2013 10:19 pm)
Valoración: 33.33%
 


Lun Oct 14, 2013 6:46 pm
Perfil  
Mostrar mensajes previos:  Ordenar por  
Responder al tema   [ 3 mensajes ] 

Todos los horarios son UTC + 1 hora [ DST ]


¿Quién está conectado?

Usuarios navegando por este Foro: No hay usuarios registrados visitando el Foro y 1 invitado


No puede abrir nuevos temas en este Foro
No puede responder a temas en este Foro
No puede editar sus mensajes en este Foro
No puede borrar sus mensajes en este Foro

Saltar a:  

Powered by phpBB © 2000, 2002, 2005, 2007 phpBB Group.
Designed by STSoftware for PTF.


rss sindicación xml Anadir noticias de este foro a igoogle